<?xml version="1.0" standalone="no"?>
<!DOCTYPE svg PUBLIC "-//W3C//DTD SVG 1.1//EN" "http://www.w3.org/Graphics/SVG/1.1/DTD/svg11.dtd" >
<svg xmlns="http://www.w3.org/2000/svg" xmlns:xlink="http://www.w3.org/1999/xlink" version="1.1">
<metadata>
Created by FontForge 20180930 at Mon Oct  8 19:03:10 2018
 By root
Copyright (c) 2017 by Cosimo Lorenzo Pancini &#38; Francesco Canovaro. All rights reserved.
</metadata>
<defs>
<font id="CodecColdTrial-News" horiz-adv-x="2531" >
  <font-face 
    font-family="Codec Cold Trial"
    font-weight="400"
    font-stretch="normal"
    units-per-em="2048"
    panose-1="2 0 5 4 4 0 0 2 0 4"
    ascent="1638"
    descent="-410"
    x-height="1018"
    cap-height="1360"
    bbox="-842.754 -1634.97 2478 1878"
    underline-thickness="95"
    underline-position="-191"
    unicode-range="U+0020-F7ED"
  />
    <missing-glyph />
    <glyph glyph-name="space" unicode=" " horiz-adv-x="454" 
 />
    <glyph glyph-name="quotesingle" unicode="'" horiz-adv-x="511" 
d="M315 864q-32 0 -60 -0.5t-60 -0.5l-12 535h147z" />
    <glyph glyph-name="parenleft" unicode="(" horiz-adv-x="687" 
d="M635 1595q-83 -72 -147 -173.5t-107 -221.5t-65 -252.5t-22 -266.5q0 -135 21.5 -266.5t64.5 -250t107 -220t148 -177.5h-158q-95 88 -159.5 193.5t-104 222.5t-56.5 242.5t-17 254.5q0 130 16.5 255.5t55.5 241.5t103 221.5t159 196.5h161z" />
    <glyph glyph-name="asterisk" unicode="*" horiz-adv-x="849" 
d="M381 1181l-5 235h100l-5 -232l201 119l50 -87l-207 -113l206 -113l-50 -87l-200 120l5 -231h-100l4 234l-200 -121l-51 87l206 111l-205 113l51 87z" />
    <glyph glyph-name="plus" unicode="+" horiz-adv-x="1404" 
d="M766 1080v-398h396v-130h-396v-400h-131v400l-394 1v129h394v398h131z" />
    <glyph glyph-name="comma" unicode="," horiz-adv-x="507" 
d="M194 150h153l-150 -347h-116z" />
    <glyph glyph-name="hyphen" unicode="-" horiz-adv-x="763" 
d="M122 549h524v-132h-524v132z" />
    <glyph glyph-name="period" unicode="." horiz-adv-x="506" 
d="M148 81q0 21 7.5 39.5t21.5 32.5t33.5 22t42.5 8t42 -8t33 -22t22 -32.5t8 -39.5t-8 -39.5t-22 -32t-33.5 -21.5t-42.5 -8t-42 8t-33 22t-21.5 32t-7.5 39z" />
    <glyph glyph-name="slash" unicode="/" horiz-adv-x="828" 
d="M-41 -208l657 1634h156l-656 -1634h-157z" />
    <glyph glyph-name="zero" unicode="0" 
d="M2478 1093v-587h-2404v587h910q0 30 5.5 58t20.5 53q12 29 26 52.5t37 41.5q39 42 91 62q28 12 55.5 17t56.5 5q33 0 61.5 -6.5t53.5 -15.5q27 -14 50.5 -29.5t45.5 -36.5q35 -38 60 -94q11 -27 15.5 -54t4.5 -53h911zM1030 1194q-20 -49 -20 -101q0 -58 20 -106
q10 -22 24.5 -43.5t29.5 -42.5q20 -17 41.5 -32t45.5 -25q46 -23 105 -23q31 0 56.5 4.5t47.5 16.5q48 19 83 57q22 20 35.5 41t26.5 43q20 54 20 110q0 20 -3.5 43.5t-11.5 47.5q-14 40 -43 72q-14 20 -29.5 33.5t-34.5 25.5l-76 36q-16 3 -33 6t-38 3q-29 0 -55.5 -5.5
t-51.5 -19.5q-50 -19 -85 -57q-17 -19 -30.5 -39.5t-23.5 -44.5zM1142 936l314 317q62 -80 62 -160q0 -24 -3.5 -45.5t-11.5 -41.5q-8 -19 -17.5 -37t-23.5 -33h-320zM1095 928q-14 17 -25 36.5t-19 39.5q-9 18 -12.5 40.5t-3.5 48.5q0 18 3.5 39t12.5 43q7 35 40 68h318z
M1135 207q2 -4 4.5 -11t5.5 -14q2 -10 2 -14v-32q0 -5 -2 -11l-6 -15l-4 -14q-6 -4 -10.5 -10t-8.5 -10q-6 -5 -11 -10.5t-10 -9.5q-9 -5 -15.5 -7t-12.5 -4q-10 -2 -15 -2h-17q-9 0 -19 2t-23 4q-12 6 -18.5 13t-17.5 14q-15 14 -21 35q-4 10 -6 19.5t-2 23.5v14q0 4 2 14
q4 17 12 25q4 8 7.5 13t7.5 11q9 5 13.5 9.5t10.5 9.5l12 4l17 6q5 0 11.5 1t13.5 1q10 0 17 -1t15 -1q6 -4 12.5 -6t15.5 -4q5 -5 10 -9.5t11 -9.5q4 -6 8.5 -11t10.5 -13zM2195 207q4 -4 6.5 -11t4.5 -14q4 -7 4 -14v-32q0 -7 -4 -11q-2 -7 -4.5 -15t-6.5 -14l-16 -20
l-12 -10l-14 -10q-5 -5 -12 -7t-13 -4q-8 -2 -14 -2h-17q-19 0 -43 6q-8 6 -16 13t-17 14q-8 6 -14 14t-8 21q-6 10 -7.5 19.5t-1.5 23.5q0 8 1 14t1 14l6 14t7 11q2 8 6 13t10 11q3 5 10.5 9.5t12.5 9.5q4 2 11 4t13 6q11 0 17 1t12 1q9 0 17 -1t14 -1q6 -4 13 -6t12 -4
l26 -19q2 -6 8 -11t8 -13zM2433 260l1 1q1 1 6 1h38v-219h-38v160l-5 -9v-8q0 -2 -2 -4q-6 -16 -13 -34.5t-16 -31.5q-6 -20 -12 -36.5t-14 -36.5h-37l-55 139q-6 3 -6 12q0 4 -1 4l-2 2v-157h-42v219h40q5 0 6.5 -1t4.5 -1q2 -2 3 -2t4 -2l7 -4q0 -2 2 -3.5t2 -3.5
q4 -18 11 -32.5t16 -34.5l12 -33q3 -8 6 -15l6 -14v-14q3 0 4 -4q0 4 1 4v14l11 13l44 116q0 1 2 3l2 4q0 1 3 3l3 1q2 2 4 2t4 2zM1329 262h38v-219h-36l-100 146l-4 5v2q-3 4 -3 5q-4 1 -4 4q0 4 -7 4v-166h-37v219h33q4 0 9.5 -1t5.5 -3q3 -2 5 -2t4 -2l22 -33
q6 -8 11 -16.5t10 -19.5q13 -13 24 -29t25 -29q0 -2 1 -4.5t1 -6.5l1 -3q0 -2 1 -3v152zM672 262l94 -219h-25q-9 0 -16 4q-2 2 -4 6.5t-6 8.5l-14 27h-100l-9 -27q0 -6 -4 -6q-2 -5 -4 -5l-3 -4q-2 0 -4.5 -1t-6.5 -1q0 -2 -2 -2h-27l96 219h35zM260 262h139v-39h-100v-49
h82v-41h-82v-51h100v-39h-139v219zM839 659q1 7 2 11t1 10q0 12 -3 21q0 7 -4.5 10.5t-6.5 9.5q-2 3 -4.5 6.5t-6.5 7.5l-7 6q-2 3 -9 9q-4 2 -8 4.5t-11 4.5q-5 0 -9.5 0.5t-10.5 0.5q-3 0 -8.5 -0.5t-12.5 -0.5q-6 -2 -10 -4.5t-8 -4.5q-4 -6 -7.5 -8.5t-7.5 -6.5
q-13 -7 -14 -14q-4 -6 -5 -9.5l-3 -10.5q-1 -5 -1.5 -10t-0.5 -11t2 -14.5t4 -15.5t6.5 -12.5t11.5 -12.5q10 -15 25 -15q10 -6 29 -6h20q15 5 19 8q11 4 16 13q3 4 6 7.5t5 8.5q2 4 6.5 9t4.5 9zM1966 659v42l-7 20q-5 7 -15 14q-1 4 -6 6.5t-10 8.5l-4 2t-5 2l-7 5
q-7 0 -12 0.5t-10 0.5q-6 0 -11 -0.5t-9 -0.5l-22 -9q-3 -6 -6 -8.5t-7 -6.5q-3 -4 -6.5 -7t-5.5 -7q-2 -6 -4.5 -9.5t-2.5 -10.5q-6 -9 -6 -21q0 -6 3 -14.5t6 -15.5q4 -15 16 -25q7 -15 26 -15q10 -6 29 -6h22q3 2 8 4t8 4l10 6t6 7q11 8 15 16zM74 262h158v-24
q0 -4 -1 -6q0 -3 -2 -5l-4 -4l-105 -143h1l2 2h108v-39h-164v13q0 11 2 13q0 2 5 7v4l2 4q2 2 4 3.5t2 6.5l94 129h-102v39zM1839 203q-4 -4 -7 -10.5t-7 -14.5q-2 -4 -4 -10t-2 -14q0 -7 2 -15l4 -12q2 -7 6 -14.5t8 -10.5q4 -4 9.5 -8.5t14.5 -7.5q12 -4 27 -4q5 0 10 1
t12 1q3 2 8 5t8 7q3 0 9 2h13q3 0 9 -2q2 -1 3.5 -3t3.5 -4l6 -7q-3 -4 -6 -7.5t-7 -7.5q-7 -5 -11.5 -8t-12.5 -6q-7 -4 -11.5 -5t-10.5 -3t-11 -2h-12q-12 0 -23.5 2t-21.5 4q-10 5 -18.5 12t-16.5 15q-16 13 -22 35q-4 10 -7 19.5t-3 23.5q0 10 1 14l4 14q1 7 3 14t6 11
q6 8 8.5 13t9.5 11q14 9 25 19q4 2 9.5 4t18.5 6q5 0 12 1t15 1h13q4 0 10 -2t10.5 -3t11.5 -3q8 -4 12.5 -6.5t11.5 -7.5l13 -17l-6 -8q-2 -1 -5 -4l-2 -4h-15q-7 0 -16 4l-16 10q-10 2 -12 2h-10q-17 0 -27 -7q-17 -1 -24 -13zM1690 151l7 -10.5t3 -7.5q6 -8 6 -20
q0 -15 -8 -29l-8 -12l-9 -10q-7 -6 -11.5 -9.5t-12.5 -5.5q-5 -2 -14 -3t-15 -1q-8 0 -14.5 1l-19.5 3q-5 2 -10 6.5t-11 13.5q-4 1 -6 5l-4 8q-7 2 -7 9l7 5q2 2 4 2h4l2 2h10q4 0 4 -2q7 0 9 -2q7 -5 10.5 -6.5t5.5 -3.5q2 0 6 -1t10 -1h5q2 0 6 2q5 1 8 2t7 3q6 6 7 9
q2 4 4 7.5t2 7.5q0 7 -6 10q-5 6 -7 6q-2 4 -7.5 5t-7.5 2q-6 0 -14 7q-5 0 -9 1t-9 7q-11 3 -14.5 6t-7.5 7q-12 4 -12 14q-6 10 -6 25q0 18 6 26l6 11l8 10q4 2 10 4t13 6q6 0 10.5 1t13.5 1q4 0 8.5 -1t11.5 -1l15 -6q3 -4 6.5 -6.5t7.5 -7.5q4 -2 7.5 -5.5t3.5 -7.5
l-7 -4q-4 -2 -7 -4.5t-3 -3.5h-18l-5 1l-7 5q-2 0 -4 1t-4 1h-17q-2 0 -3 -1t-5 -3q-2 -3 -6 -6q-1 -3 -1 -10q0 -5 1 -5q2 -2 3 -5.5t3 -7.5h6q1 0 5 -2q5 -1 9.5 -3t10.5 -4l9 -2q5 -4 9 -5t9 -5q5 -2 10 -5t8 -8zM1579 336q-12 7 -16 20q-7 17 -7 31v16l11 20l12 13
q6 7 12 9q3 7 9.5 8t9.5 3q4 0 8 1.5t10 1.5q4 0 10.5 -1.5t10.5 -1.5q5 -2 8.5 -3t7.5 -8q2 -2 5.5 -4.5t6.5 -4.5l13 -13l8 -20q0 -4 1 -9t1 -7q0 -6 -1 -14t-5 -17q-5 -13 -17 -20q-5 -4 -9.5 -7.5t-11.5 -10.5q-5 -1 -12 -1.5t-16 -0.5h-15q-4 0 -10 2q-18 7 -24 18z
M2284 336q-7 -4 -13.5 -7.5t-11.5 -10.5q-8 -2 -12 -2h-30q-5 0 -13 2q-7 4 -12.5 8.5t-10.5 9.5q-6 6 -13 20q-2 9 -4.5 17t-2.5 14q0 2 1 7t1 9q3 5 4 10t4 10q2 3 5 6t5 7q6 4 18 9q3 7 8 8t7 3q6 0 9 1.5t10 1.5q2 0 8.5 -1.5t11.5 -1.5q4 -2 7.5 -3t6.5 -8l17 -9
q2 -4 4 -7t5 -6q2 -5 4 -9.5t3 -10.5q2 -4 3 -9t1 -7q0 -6 -1 -14t-5 -17q0 -6 -5 -11zM2166 127q5 12 5 27q0 16 -5 24q-3 9 -8 15.5t-8 9.5q-10 10 -24 13q-4 5 -12 6t-17 1q-12 0 -25 -7q-8 -1 -13 -4t-11 -9q-4 -3 -7.5 -9.5t-8.5 -15.5q0 -4 -1 -10t-1 -14q0 -9 1 -15
t1 -12q4 -8 8 -14t8 -11q6 -4 11 -8.5t13 -7.5q7 -2 14 -3t11 -1q9 0 17 1t12 3q8 3 14 7.5t10 8.5q11 11 16 25zM1104 127q4 11 4 27q0 13 -4 24q-2 9 -6.5 15.5t-13.5 9.5q-2 6 -7.5 9t-11.5 4q-11 7 -30 7q-14 0 -25 -7q-11 -1 -23 -13q-6 -3 -9 -9.5t-5 -15.5
q-5 -5 -5 -10v-29q0 -5 5 -12q2 -7 5 -14.5t9 -10.5q6 -4 11 -8.5t12 -7.5q11 -4 25 -4q19 0 30 4q13 7 19 16q9 3 13.5 10.5t6.5 14.5zM774 262h139v-39h-100v-55h82v-39h-82v-86h-39v219zM570 223h-58v-180h-43v180h-62v39h163v-39zM1188 864q-19 7 -37 19t-35 26h322
q-18 -14 -36 -26t-36 -19q-24 -6 -45.5 -11t-44.5 -5q-25 0 -45.5 5t-42.5 11zM1389 262h165v-39h-65v-180h-39v180h-61v39zM1366 1315q18 -8 36 -20.5t36 -22.5h-325q38 30 75 43q37 18 88 18q48 0 90 -18zM559 604l-47 68q4 0 11 4q8 5 9 10q9 5 9 11v26q0 1 -2 5
q-3 10 -11 15q-5 9 -14 9q-2 5 -6.5 6t-9.5 1h-57v-155h24v64h23l40 -56q1 -4 8 -6q2 -2 3 -2h20zM1169 604l-67 155h-22l-65 -155h11q7 0 9 2q0 2 7 6l11 27h76l13 -27q1 -4 5 -6q2 -2 8 -2h14zM1930 721q3 -2 8 -7.5t6 -12.5q4 -7 4 -21q0 -12 -4 -23q-1 -5 -6 -9.5
t-8 -6.5q-5 -4 -9 -6.5t-8 -7.5q-9 -4 -23 -4q-6 0 -12 1t-10 3q-5 5 -10.5 7.5t-9.5 6.5q-3 2 -6 6.5t-3 9.5q-4 7 -5 12t-1 11q0 10 6 21q0 7 3 12.5t6 7.5q4 4 9.5 7t10.5 5q9 4 22 4q5 0 11.5 -1t11.5 -3zM801 721q7 -2 9.5 -7.5t4.5 -12.5q4 -7 4 -21q0 -11 -4 -23
q-2 -5 -4.5 -9.5t-9.5 -6.5q-1 -4 -6 -7l-11 -7q-9 -4 -22 -4q-11 0 -23 4q-4 5 -9 7.5t-9 6.5q-2 2 -5.5 6.5t-5.5 9.5q-4 12 -4 23q0 12 4 21q2 7 5.5 12.5t5.5 7.5q4 4 9 7t9 5q5 2 12.5 3t10.5 1q13 0 22 -4q8 -2 11.5 -5t5.5 -7zM2126 759h-22v-120q-1 2 -2 5t-3 4
l-75 104l-3 7h-24v-155h22v121l2 -2l87 -119h18v155zM2218 332h31l6 3q3 3 4 5q6 0 14 5q2 5 3 7t4 4q0 3 3 8t3 10v34q-3 6 -7 10.5t-6 7.5q-10 4 -18 12h-43q-6 -4 -9.5 -7t-9.5 -5q-5 -3 -7.5 -7.5t-4.5 -10.5q-1 -4 -1.5 -7t-0.5 -7v-20q0 -13 5 -18q2 -2 4.5 -4t4.5 -7
l7 -3q2 -2 4 -2q4 -4 7 -5t7 -3zM296 690q5 12 5 20q0 9 -5 18q0 2 -5 7l-6 6q-2 3 -5 7t-10 4q-3 5 -8.5 6t-9.5 1h-52v-155h16v59h36q4 0 9.5 0.5t8.5 2.5q10 4 15 10q4 2 7.5 6t3.5 8zM1579 408q-6 -14 -6 -21v-8q0 -4 3 -5q0 -10 5 -18q0 -2 2 -4t4 -7l5 -3q2 -2 11 -2
q2 -4 5.5 -5t5.5 -3h27q6 2 9.5 3t6.5 5l6 2l4 3q2 5 4.5 7t2.5 4q3 3 4 8t3 10q0 2 1 5.5t1 7.5q0 2 -1 8t-5 13q0 6 -4 10.5t-6 7.5q-3 1 -8 6l-10 6h-42q-4 -4 -10 -7l-10 -5l-5 -8q-3 -5 -3 -10zM997 759h-18v-120l-2 4q-2 6 -2 5l-74 104q-5 0 -6 7h-25v-155h21v124h2
l2 -1v-4l86 -119h16v155zM2115 381q-5 -1 -8.5 -2t-5.5 -2l45 -61h-12l-6 2q-4 0 -4 9l-39 50h-28v-61h-15v140h57q3 0 9 -2q2 -2 6.5 -5.5t5.5 -5.5q4 -2 5 -5.5t7 -7.5v-27q-4 -4 -5 -8t-3 -6zM1342 381q-3 -3 -11 -4l47 -61h-15q-3 0 -3 2q-6 0 -6 9l-39 50h-28v-61h-13
v140h56q2 0 6 -2q10 -1 18 -11q0 -2 3 -5.5t3 -7.5q2 -2 2 -6v-14q0 -1 -2 -7q0 -10 -4 -14l-5 -4q-3 -3 -9 -4zM412 759h-98v-155h98v21h-74v47h58v18h-58v45h74v24zM1721 759h-93v-155h93v21h-69v47h58v18h-58v45h69v24zM2460 454q6 2 5 2h13v-140h-12v114l-2 -2v-2
q-4 -8 -6.5 -17.5t-8.5 -14.5q-5 -7 -7 -12.5t-7 -14.5q-2 -9 -3 -15.5t-5 -9.5q-3 -8 -6.5 -12.5t-5.5 -13.5h-15q-10 14 -15 27t-10 28q-4 12 -12 26.5t-12 28.5v2h-4v-112h-14v140h14q4 0 6 -2l2 -2v-7l49 -105q0 -4 2 -4l1 2v4q0 2 8 6l41 97q2 7 3 7t1 2zM1480 759h-22
v-104q0 -4 -2 -8q-1 -7 -10 -12q0 -2 -4 -3.5t-6 -6.5l-9 -2h-9q-7 0 -13 2q-5 5 -8.5 6.5t-5.5 3.5l-11 12q0 3 -1 7.5t-1 11.5v93h-20v-93q0 -7 1 -11.5t1 -7.5q0 -8 6 -14q3 -8 10 -12q2 -4 4.5 -6.5t8.5 -4.5q2 -2 6.5 -3t7.5 -3q4 0 7 -1.5t8 -1.5t8.5 1.5t11.5 1.5
q2 2 5 3t7 3q3 2 6 4.5t6 6.5q3 2 5 5.5t7 6.5q0 4 3 7t3 7v112zM664 632q2 5 3 8t1 8q0 12 -5.5 20t-12.5 14q-2 0 -3.5 2t-5.5 4l-4 2h-4q-1 0 -1 4q-8 0 -9 1q-8 2 -9.5 3t-5.5 3q-6 5 -9 5q-3 4 -3 6v15q0 1 1.5 2.5t1.5 3.5q2 0 4.5 1t4.5 1q6 2 5 2h10q2 -2 4 -2
q7 0 8 -4q1 -3 4 -3h2q9 0 14 5l4 2q0 2 -2 4l-5 4q-2 1 -4.5 4t-6.5 5q-2 0 -4 2.5t-5 4.5q-5 0 -7 0.5t-4 0.5q-7 0 -12 -0.5t-8 -0.5q-5 -2 -7 -4.5t-6 -4.5q-2 -6 -5.5 -8.5t-8.5 -6.5q0 -4 -2 -7t-2 -9t4 -18l12 -11q2 -2 6 -5t7 -3q5 -2 8 -4t7 -2q1 -2 6 -2t7 -2
l6 -2q2 0 4 -2t2 -3t2 -6q2 -2 2 -7v-9q0 -2 -2 -4t-2 -4t-2 -3q-2 -5 -6 -6l-4 -1q-4 0 -8 -1t-5 -1q-4 0 -7 1t-6 1q-2 0 -3.5 1t-1.5 6l-4 1q-4 4 -11 4h-7l-4 -2l-5 -2q0 -3 3 -3q0 -3 2 -5q0 -4 4 -4v-6h5q7 -7 16 -9t19 -2h10q5 0 11 2q4 2 8.5 4t6.5 5q13 5 14 17z
M1741 316h-18v140h20q3 0 4 -4l74 -104q2 0 2 -5l2 -1v114h14v-140h-12l-82 114v4h-4v-118zM1596 632q9 7 9 16q0 12 -5.5 20t-12.5 14q-6 4 -6 6h-4l-4 2h-3q-4 0 -5 4h-4q-2 0 -5 1q-2 2 -4 3t-7 3l-7 5q-2 1 -3 2l-2 2l-1 2q0 1 -1 3t-1 4q0 4 4 8q0 2 4 6q2 0 3 1t4 1
q2 2 11 2l4 -1q2 -1 5 -1q3 -3 8 -4q6 -3 8 -3q6 0 8 5l5 2q0 2 -2.5 4t-4.5 4q0 1 -3 4l-5 5q-3 0 -5.5 2.5t-6.5 4.5h-6l-5 1q-6 0 -10 -0.5t-8 -0.5l-13 -9q-5 -6 -7 -8.5t-6 -6.5q-1 -4 -3 -7t-2 -9q0 -4 2 -7.5t3 -10.5l10 -11q5 -2 7.5 -5t6.5 -3q4 -2 7.5 -4t6.5 -2
q4 -2 7 -2t6 -2q6 0 10 -4l4 -3q2 -2 2 -6q2 -2 2 -6v-9q0 -3 -2 -5q0 -6 -6 -7q-6 -5 -7 -6t-3 -1q-7 0 -8 -1t-5 -1q-3 0 -6.5 1t-5.5 1q-2 1 -4 3l-4 4l-2 1q-5 4 -10 4h-7q-2 0 -4 -2l-6 -2q2 -1 2 -2t2 -1q0 -3 1 -4l3 -3v-2q6 -6 9 -6q7 -7 14.5 -9t17.5 -2h12
q3 0 11 2q3 2 6.5 4t7.5 5l5 8q3 3 4 9zM78 350q-6 6 -7 17l-3 10q-1 3 -1 10t4 16l2 10t5 10l4 6l5 7q2 2 6.5 4.5t6.5 4.5q6 7 11 8t9 3q3 0 8 1.5t10 1.5q7 0 14.5 -1.5t13.5 -5.5q8 -2 12.5 -6.5t8.5 -9.5q-2 -2 -4 -2v-4h-13q-4 2 -7 5t-7 3h-36l-22 -12
q-4 -3 -7.5 -7.5t-4.5 -10.5q-2 -7 -3 -13t-1 -8q0 -9 4 -13q0 -5 0.5 -10t0.5 -8l5 -4q4 -1 6 -7l7 -4q3 -1 8 -1q3 -4 5.5 -5t6.5 -3h33q2 2 7 3t9 5v29h-14v2q-2 0 -3 1.5t-3 3.5h-2q-1 1 -1 3v4h36v-51q-2 -5 -3.5 -6t-5.5 -8h-12q-8 -2 -12 -2h-34q-4 0 -9 3.5t-11 7.5
q-2 0 -6.5 2.5t-6.5 6.5q-3 4 -5 6.5t-4 7.5zM240 438v-44h56v-15h-56v-47h67v-16h-84v140h84v-18h-67zM1171 438v-44h60v-15h-60v-47h68v-16h-84v140h84v-18h-68zM2375 759h-20q-3 0 -8 -5q-6 -5 -6 -10l-37 -47h-2q0 -2 -2 -2v2l-39 47q-1 7 -4 10q-5 5 -11 5h-18l58 -77
v-2q0 -2 2 -2l2 -2v-72h21v70q2 0 2 2l2 4v2zM641 456v-85q0 -7 2 -10t5 -5q0 -6 3.5 -9.5t5.5 -4.5q0 -2 4.5 -4t6.5 -4q6 -2 8 -2h16q1 0 5 2l9 4q2 1 3.5 2t3.5 2q3 1 8 14q4 3 4 15v85h14v-85q0 -12 -4 -23t-12 -16q-2 -5 -6.5 -9.5t-8.5 -4.5q-8 -1 -13.5 -1.5
t-10.5 -0.5t-11 0.5t-14 1.5q-2 0 -6.5 4.5l-9.5 9.5l-10 16q-1 6 -3.5 11t-2.5 12v85h14zM2253 625h-69v134h-21v-155h90v21zM1271 625h-67v134h-20v-155h87v21zM1452 336q1 2 2 3.5t2 3.5q2 2 3 6.5t1 6.5q0 9 -2 11t-3 4.5t-3 4.5q-1 1 -8 3q-4 0 -6 2t-6 2q-8 0 -14 6
q-9 0 -13 7q-2 0 -3.5 3.5t-3.5 7.5v22q0 1 2 7q0 8 7 9l6 7q2 1 3.5 2t3.5 2q5 0 7.5 1.5t8.5 1.5l6 -2l4 -1q4 0 5 -1t5 -3q2 0 4 -3.5t2 -5.5q4 0 6 -3l1 -2l-2 -2q-6 -2 -9 -2h-6q-2 2 -2 4h-23q-9 0 -9 -2q-5 -7 -5 -8q-4 0 -4 -8q0 -5 4 -6q0 -5 3 -6q0 -1 3 -4l4 -1
q4 -4 7.5 -4t7.5 -3q3 0 4 -1l2 -1q4 0 8 -5h4q2 0 4 -2h2q5 -4 8.5 -7t5.5 -4q1 -5 1.5 -10.5t0.5 -9.5v-10q0 -5 -4 -6q-3 -4 -5.5 -7.5t-6.5 -5.5q-2 -2 -6 -5.5t-6 -3.5q-6 -2 -10 -2h-9q-11 0 -18.5 1t-12.5 10q-2 0 -3.5 2.5t-5.5 4.5v4l-2 2l4 2h7q1 0 3 -1t4 -1
q4 -4 6.5 -5t4.5 -3h22q8 0 12 4zM1069 316l-59 140h6q6 0 8 -2t3 -2t3 -7l43 -103v-2l2 -6v6l2 2q5 14 13 27.5t12 24.5q4 16 10 28t12 23q0 7 1.5 7t1.5 2q6 2 7 2h11q-8 -18 -15.5 -35t-16.5 -34q-4 -9 -7 -18.5t-6 -18.5l-16 -34h-15zM532 438v-49h60v-12h-60v-61h-16
v140h85v-18h-69zM1959 438v-49h54v-12h-54v-61h-16v140h81v-18h-65zM879 456v-124h63v-16h-80v140h17zM371 316v122h-46v18h105v-18h-47v-122h-12zM784 456v-124h64v-16h-80v140h16zM270 728q2 -1 3 -4t3 -5q4 -4 4 -9v-4q0 -5 -4 -9q-2 -2 -3 -4.5t-3 -2.5l-4 -4l-4 -4h-46
v53h36q4 0 10 -2q1 0 4 -3zM1325 389q4 0 6 3q4 4 9 4l2 5q0 2 5 6q0 1 1 4t1 7q0 2 -1 3.5t-1 4.5q-7 3 -7 8q-5 0 -9 4h-44v-49h38zM2101 392q4 4 7 4q7 7 7 11q2 4 2 11q0 4 -2 8q0 2 -7 8q-3 0 -7 4h-44v-49h36q3 0 8 3zM1525 456v-140h-18v140h18zM518 701l-4 -7
q-2 0 -3 -2t-3 -2q-2 -2 -10 -2h-33v47h33q4 0 10 -2q2 0 6 -5q1 -2 2 -3.5t2 -3.5q3 -2 3 -9q0 -5 -3 -11zM684 129l-27 69q0 2 -1 3l-1 2q0 4 -3 6v-6l-1 -2q-1 -1 -1 -3l-27 -69h61zM1093 727v-4l27 -64h-59l30 64v5zM1755 82q6 0 6 -6q2 -2 2 -5v-4q0 -9 -2 -11
q0 -5 -6 -9q-3 0 -6 -4h-17q-4 4 -11 4q0 2 -5 9q-2 2 -2 11v4q0 3 2 5l3 4l2 2q7 4 11 4q1 3 4 3h10q3 0 3 -3q3 0 6 -4z" />
    <glyph glyph-name="one" unicode="1" 
d="M2478 1093v-587h-2404v587h910q0 30 5.5 58t20.5 53q12 29 26 52.5t37 41.5q39 42 91 62q28 12 55.5 17t56.5 5q33 0 61.5 -6.5t53.5 -15.5q27 -14 50.5 -29.5t45.5 -36.5q35 -38 60 -94q11 -27 15.5 -54t4.5 -53h911zM1030 1194q-20 -49 -20 -101q0 -58 20 -106
q10 -22 24.5 -43.5t29.5 -42.5q20 -17 41.5 -32t45.5 -25q46 -23 105 -23q31 0 56.5 4.5t47.5 16.5q48 19 83 57q22 20 35.5 41t26.5 43q20 54 20 110q0 20 -3.5 43.5t-11.5 47.5q-14 40 -43 72q-14 20 -29.5 33.5t-34.5 25.5l-76 36q-16 3 -33 6t-38 3q-29 0 -55.5 -5.5
t-51.5 -19.5q-50 -19 -85 -57q-17 -19 -30.5 -39.5t-23.5 -44.5zM1142 936l314 317q62 -80 62 -160q0 -24 -3.5 -45.5t-11.5 -41.5q-8 -19 -17.5 -37t-23.5 -33h-320zM1095 928q-14 17 -25 36.5t-19 39.5q-9 18 -12.5 40.5t-3.5 48.5q0 18 3.5 39t12.5 43q7 35 40 68h318z
M1135 207q2 -4 4.5 -11t5.5 -14q2 -10 2 -14v-32q0 -5 -2 -11l-6 -15l-4 -14q-6 -4 -10.5 -10t-8.5 -10q-6 -5 -11 -10.5t-10 -9.5q-9 -5 -15.5 -7t-12.5 -4q-10 -2 -15 -2h-17q-9 0 -19 2t-23 4q-12 6 -18.5 13t-17.5 14q-15 14 -21 35q-4 10 -6 19.5t-2 23.5v14q0 4 2 14
q4 17 12 25q4 8 7.5 13t7.5 11q9 5 13.5 9.5t10.5 9.5l12 4l17 6q5 0 11.5 1t13.5 1q10 0 17 -1t15 -1q6 -4 12.5 -6t15.5 -4q5 -5 10 -9.5t11 -9.5q4 -6 8.5 -11t10.5 -13zM2195 207q4 -4 6.5 -11t4.5 -14q4 -7 4 -14v-32q0 -7 -4 -11q-2 -7 -4.5 -15t-6.5 -14l-16 -20
l-12 -10l-14 -10q-5 -5 -12 -7t-13 -4q-8 -2 -14 -2h-17q-19 0 -43 6q-8 6 -16 13t-17 14q-8 6 -14 14t-8 21q-6 10 -7.5 19.5t-1.5 23.5q0 8 1 14t1 14l6 14t7 11q2 8 6 13t10 11q3 5 10.5 9.5t12.5 9.5q4 2 11 4t13 6q11 0 17 1t12 1q9 0 17 -1t14 -1q6 -4 13 -6t12 -4
l26 -19q2 -6 8 -11t8 -13zM2433 260l1 1q1 1 6 1h38v-219h-38v160l-5 -9v-8q0 -2 -2 -4q-6 -16 -13 -34.5t-16 -31.5q-6 -20 -12 -36.5t-14 -36.5h-37l-55 139q-6 3 -6 12q0 4 -1 4l-2 2v-157h-42v219h40q5 0 6.5 -1t4.5 -1q2 -2 3 -2t4 -2l7 -4q0 -2 2 -3.5t2 -3.5
q4 -18 11 -32.5t16 -34.5l12 -33q3 -8 6 -15l6 -14v-14q3 0 4 -4q0 4 1 4v14l11 13l44 116q0 1 2 3l2 4q0 1 3 3l3 1q2 2 4 2t4 2zM1329 262h38v-219h-36l-100 146l-4 5v2q-3 4 -3 5q-4 1 -4 4q0 4 -7 4v-166h-37v219h33q4 0 9.5 -1t5.5 -3q3 -2 5 -2t4 -2l22 -33
q6 -8 11 -16.5t10 -19.5q13 -13 24 -29t25 -29q0 -2 1 -4.5t1 -6.5l1 -3q0 -2 1 -3v152zM672 262l94 -219h-25q-9 0 -16 4q-2 2 -4 6.5t-6 8.5l-14 27h-100l-9 -27q0 -6 -4 -6q-2 -5 -4 -5l-3 -4q-2 0 -4.5 -1t-6.5 -1q0 -2 -2 -2h-27l96 219h35zM260 262h139v-39h-100v-49
h82v-41h-82v-51h100v-39h-139v219zM839 659q1 7 2 11t1 10q0 12 -3 21q0 7 -4.5 10.5t-6.5 9.5q-2 3 -4.5 6.5t-6.5 7.5l-7 6q-2 3 -9 9q-4 2 -8 4.5t-11 4.5q-5 0 -9.5 0.5t-10.5 0.5q-3 0 -8.5 -0.5t-12.5 -0.5q-6 -2 -10 -4.5t-8 -4.5q-4 -6 -7.5 -8.5t-7.5 -6.5
q-13 -7 -14 -14q-4 -6 -5 -9.5l-3 -10.5q-1 -5 -1.5 -10t-0.5 -11t2 -14.5t4 -15.5t6.5 -12.5t11.5 -12.5q10 -15 25 -15q10 -6 29 -6h20q15 5 19 8q11 4 16 13q3 4 6 7.5t5 8.5q2 4 6.5 9t4.5 9zM1966 659v42l-7 20q-5 7 -15 14q-1 4 -6 6.5t-10 8.5l-4 2t-5 2l-7 5
q-7 0 -12 0.5t-10 0.5q-6 0 -11 -0.5t-9 -0.5l-22 -9q-3 -6 -6 -8.5t-7 -6.5q-3 -4 -6.5 -7t-5.5 -7q-2 -6 -4.5 -9.5t-2.5 -10.5q-6 -9 -6 -21q0 -6 3 -14.5t6 -15.5q4 -15 16 -25q7 -15 26 -15q10 -6 29 -6h22q3 2 8 4t8 4l10 6t6 7q11 8 15 16zM74 262h158v-24
q0 -4 -1 -6q0 -3 -2 -5l-4 -4l-105 -143h1l2 2h108v-39h-164v13q0 11 2 13q0 2 5 7v4l2 4q2 2 4 3.5t2 6.5l94 129h-102v39zM1839 203q-4 -4 -7 -10.5t-7 -14.5q-2 -4 -4 -10t-2 -14q0 -7 2 -15l4 -12q2 -7 6 -14.5t8 -10.5q4 -4 9.5 -8.5t14.5 -7.5q12 -4 27 -4q5 0 10 1
t12 1q3 2 8 5t8 7q3 0 9 2h13q3 0 9 -2q2 -1 3.5 -3t3.5 -4l6 -7q-3 -4 -6 -7.5t-7 -7.5q-7 -5 -11.5 -8t-12.5 -6q-7 -4 -11.5 -5t-10.5 -3t-11 -2h-12q-12 0 -23.5 2t-21.5 4q-10 5 -18.5 12t-16.5 15q-16 13 -22 35q-4 10 -7 19.5t-3 23.5q0 10 1 14l4 14q1 7 3 14t6 11
q6 8 8.5 13t9.5 11q14 9 25 19q4 2 9.5 4t18.5 6q5 0 12 1t15 1h13q4 0 10 -2t10.5 -3t11.5 -3q8 -4 12.5 -6.5t11.5 -7.5l13 -17l-6 -8q-2 -1 -5 -4l-2 -4h-15q-7 0 -16 4l-16 10q-10 2 -12 2h-10q-17 0 -27 -7q-17 -1 -24 -13zM1690 151l7 -10.5t3 -7.5q6 -8 6 -20
q0 -15 -8 -29l-8 -12l-9 -10q-7 -6 -11.5 -9.5t-12.5 -5.5q-5 -2 -14 -3t-15 -1q-8 0 -14.5 1l-19.5 3q-5 2 -10 6.5t-11 13.5q-4 1 -6 5l-4 8q-7 2 -7 9l7 5q2 2 4 2h4l2 2h10q4 0 4 -2q7 0 9 -2q7 -5 10.5 -6.5t5.5 -3.5q2 0 6 -1t10 -1h5q2 0 6 2q5 1 8 2t7 3q6 6 7 9
q2 4 4 7.5t2 7.5q0 7 -6 10q-5 6 -7 6q-2 4 -7.5 5t-7.5 2q-6 0 -14 7q-5 0 -9 1t-9 7q-11 3 -14.5 6t-7.5 7q-12 4 -12 14q-6 10 -6 25q0 18 6 26l6 11l8 10q4 2 10 4t13 6q6 0 10.5 1t13.5 1q4 0 8.5 -1t11.5 -1l15 -6q3 -4 6.5 -6.5t7.5 -7.5q4 -2 7.5 -5.5t3.5 -7.5
l-7 -4q-4 -2 -7 -4.5t-3 -3.5h-18l-5 1l-7 5q-2 0 -4 1t-4 1h-17q-2 0 -3 -1t-5 -3q-2 -3 -6 -6q-1 -3 -1 -10q0 -5 1 -5q2 -2 3 -5.5t3 -7.5h6q1 0 5 -2q5 -1 9.5 -3t10.5 -4l9 -2q5 -4 9 -5t9 -5q5 -2 10 -5t8 -8zM1579 336q-12 7 -16 20q-7 17 -7 31v16l11 20l12 13
q6 7 12 9q3 7 9.5 8t9.5 3q4 0 8 1.5t10 1.5q4 0 10.5 -1.5t10.5 -1.5q5 -2 8.5 -3t7.5 -8q2 -2 5.5 -4.5t6.5 -4.5l13 -13l8 -20q0 -4 1 -9t1 -7q0 -6 -1 -14t-5 -17q-5 -13 -17 -20q-5 -4 -9.5 -7.5t-11.5 -10.5q-5 -1 -12 -1.5t-16 -0.5h-15q-4 0 -10 2q-18 7 -24 18z
M2284 336q-7 -4 -13.5 -7.5t-11.5 -10.5q-8 -2 -12 -2h-30q-5 0 -13 2q-7 4 -12.5 8.5t-10.5 9.5q-6 6 -13 20q-2 9 -4.5 17t-2.5 14q0 2 1 7t1 9q3 5 4 10t4 10q2 3 5 6t5 7q6 4 18 9q3 7 8 8t7 3q6 0 9 1.5t10 1.5q2 0 8.5 -1.5t11.5 -1.5q4 -2 7.5 -3t6.5 -8l17 -9
q2 -4 4 -7t5 -6q2 -5 4 -9.5t3 -10.5q2 -4 3 -9t1 -7q0 -6 -1 -14t-5 -17q0 -6 -5 -11zM2166 127q5 12 5 27q0 16 -5 24q-3 9 -8 15.5t-8 9.5q-10 10 -24 13q-4 5 -12 6t-17 1q-12 0 -25 -7q-8 -1 -13 -4t-11 -9q-4 -3 -7.5 -9.5t-8.5 -15.5q0 -4 -1 -10t-1 -14q0 -9 1 -15
t1 -12q4 -8 8 -14t8 -11q6 -4 11 -8.5t13 -7.5q7 -2 14 -3t11 -1q9 0 17 1t12 3q8 3 14 7.5t10 8.5q11 11 16 25zM1104 127q4 11 4 27q0 13 -4 24q-2 9 -6.5 15.5t-13.5 9.5q-2 6 -7.5 9t-11.5 4q-11 7 -30 7q-14 0 -25 -7q-11 -1 -23 -13q-6 -3 -9 -9.5t-5 -15.5
q-5 -5 -5 -10v-29q0 -5 5 -12q2 -7 5 -14.5t9 -10.5q6 -4 11 -8.5t12 -7.5q11 -4 25 -4q19 0 30 4q13 7 19 16q9 3 13.5 10.5t6.5 14.5zM774 262h139v-39h-100v-55h82v-39h-82v-86h-39v219zM570 223h-58v-180h-43v180h-62v39h163v-39zM1188 864q-19 7 -37 19t-35 26h322
q-18 -14 -36 -26t-36 -19q-24 -6 -45.5 -11t-44.5 -5q-25 0 -45.5 5t-42.5 11zM1389 262h165v-39h-65v-180h-39v180h-61v39zM1366 1315q18 -8 36 -20.5t36 -22.5h-325q38 30 75 43q37 18 88 18q48 0 90 -18zM559 604l-47 68q4 0 11 4q8 5 9 10q9 5 9 11v26q0 1 -2 5
q-3 10 -11 15q-5 9 -14 9q-2 5 -6.5 6t-9.5 1h-57v-155h24v64h23l40 -56q1 -4 8 -6q2 -2 3 -2h20zM1169 604l-67 155h-22l-65 -155h11q7 0 9 2q0 2 7 6l11 27h76l13 -27q1 -4 5 -6q2 -2 8 -2h14zM1930 721q3 -2 8 -7.5t6 -12.5q4 -7 4 -21q0 -12 -4 -23q-1 -5 -6 -9.5
t-8 -6.5q-5 -4 -9 -6.5t-8 -7.5q-9 -4 -23 -4q-6 0 -12 1t-10 3q-5 5 -10.5 7.5t-9.5 6.5q-3 2 -6 6.5t-3 9.5q-4 7 -5 12t-1 11q0 10 6 21q0 7 3 12.5t6 7.5q4 4 9.5 7t10.5 5q9 4 22 4q5 0 11.5 -1t11.5 -3zM801 721q7 -2 9.5 -7.5t4.5 -12.5q4 -7 4 -21q0 -11 -4 -23
q-2 -5 -4.5 -9.5t-9.5 -6.5q-1 -4 -6 -7l-11 -7q-9 -4 -22 -4q-11 0 -23 4q-4 5 -9 7.5t-9 6.5q-2 2 -5.5 6.5t-5.5 9.5q-4 12 -4 23q0 12 4 21q2 7 5.5 12.5t5.5 7.5q4 4 9 7t9 5q5 2 12.5 3t10.5 1q13 0 22 -4q8 -2 11.5 -5t5.5 -7zM2126 759h-22v-120q-1 2 -2 5t-3 4
l-75 104l-3 7h-24v-155h22v121l2 -2l87 -119h18v155zM2218 332h31l6 3q3 3 4 5q6 0 14 5q2 5 3 7t4 4q0 3 3 8t3 10v34q-3 6 -7 10.5t-6 7.5q-10 4 -18 12h-43q-6 -4 -9.5 -7t-9.5 -5q-5 -3 -7.5 -7.5t-4.5 -10.5q-1 -4 -1.5 -7t-0.5 -7v-20q0 -13 5 -18q2 -2 4.5 -4t4.5 -7
l7 -3q2 -2 4 -2q4 -4 7 -5t7 -3zM296 690q5 12 5 20q0 9 -5 18q0 2 -5 7l-6 6q-2 3 -5 7t-10 4q-3 5 -8.5 6t-9.5 1h-52v-155h16v59h36q4 0 9.5 0.5t8.5 2.5q10 4 15 10q4 2 7.5 6t3.5 8zM1579 408q-6 -14 -6 -21v-8q0 -4 3 -5q0 -10 5 -18q0 -2 2 -4t4 -7l5 -3q2 -2 11 -2
q2 -4 5.5 -5t5.5 -3h27q6 2 9.5 3t6.5 5l6 2l4 3q2 5 4.5 7t2.5 4q3 3 4 8t3 10q0 2 1 5.5t1 7.5q0 2 -1 8t-5 13q0 6 -4 10.5t-6 7.5q-3 1 -8 6l-10 6h-42q-4 -4 -10 -7l-10 -5l-5 -8q-3 -5 -3 -10zM997 759h-18v-120l-2 4q-2 6 -2 5l-74 104q-5 0 -6 7h-25v-155h21v124h2
l2 -1v-4l86 -119h16v155zM2115 381q-5 -1 -8.5 -2t-5.5 -2l45 -61h-12l-6 2q-4 0 -4 9l-39 50h-28v-61h-15v140h57q3 0 9 -2q2 -2 6.5 -5.5t5.5 -5.5q4 -2 5 -5.5t7 -7.5v-27q-4 -4 -5 -8t-3 -6zM1342 381q-3 -3 -11 -4l47 -61h-15q-3 0 -3 2q-6 0 -6 9l-39 50h-28v-61h-13
v140h56q2 0 6 -2q10 -1 18 -11q0 -2 3 -5.5t3 -7.5q2 -2 2 -6v-14q0 -1 -2 -7q0 -10 -4 -14l-5 -4q-3 -3 -9 -4zM412 759h-98v-155h98v21h-74v47h58v18h-58v45h74v24zM1721 759h-93v-155h93v21h-69v47h58v18h-58v45h69v24zM2460 454q6 2 5 2h13v-140h-12v114l-2 -2v-2
q-4 -8 -6.5 -17.5t-8.5 -14.5q-5 -7 -7 -12.5t-7 -14.5q-2 -9 -3 -15.5t-5 -9.5q-3 -8 -6.5 -12.5t-5.5 -13.5h-15q-10 14 -15 27t-10 28q-4 12 -12 26.5t-12 28.5v2h-4v-112h-14v140h14q4 0 6 -2l2 -2v-7l49 -105q0 -4 2 -4l1 2v4q0 2 8 6l41 97q2 7 3 7t1 2zM1480 759h-22
v-104q0 -4 -2 -8q-1 -7 -10 -12q0 -2 -4 -3.5t-6 -6.5l-9 -2h-9q-7 0 -13 2q-5 5 -8.5 6.5t-5.5 3.5l-11 12q0 3 -1 7.5t-1 11.5v93h-20v-93q0 -7 1 -11.5t1 -7.5q0 -8 6 -14q3 -8 10 -12q2 -4 4.5 -6.5t8.5 -4.5q2 -2 6.5 -3t7.5 -3q4 0 7 -1.5t8 -1.5t8.5 1.5t11.5 1.5
q2 2 5 3t7 3q3 2 6 4.5t6 6.5q3 2 5 5.5t7 6.5q0 4 3 7t3 7v112zM664 632q2 5 3 8t1 8q0 12 -5.5 20t-12.5 14q-2 0 -3.5 2t-5.5 4l-4 2h-4q-1 0 -1 4q-8 0 -9 1q-8 2 -9.5 3t-5.5 3q-6 5 -9 5q-3 4 -3 6v15q0 1 1.5 2.5t1.5 3.5q2 0 4.5 1t4.5 1q6 2 5 2h10q2 -2 4 -2
q7 0 8 -4q1 -3 4 -3h2q9 0 14 5l4 2q0 2 -2 4l-5 4q-2 1 -4.5 4t-6.5 5q-2 0 -4 2.5t-5 4.5q-5 0 -7 0.5t-4 0.5q-7 0 -12 -0.5t-8 -0.5q-5 -2 -7 -4.5t-6 -4.5q-2 -6 -5.5 -8.5t-8.5 -6.5q0 -4 -2 -7t-2 -9t4 -18l12 -11q2 -2 6 -5t7 -3q5 -2 8 -4t7 -2q1 -2 6 -2t7 -2
l6 -2q2 0 4 -2t2 -3t2 -6q2 -2 2 -7v-9q0 -2 -2 -4t-2 -4t-2 -3q-2 -5 -6 -6l-4 -1q-4 0 -8 -1t-5 -1q-4 0 -7 1t-6 1q-2 0 -3.5 1t-1.5 6l-4 1q-4 4 -11 4h-7l-4 -2l-5 -2q0 -3 3 -3q0 -3 2 -5q0 -4 4 -4v-6h5q7 -7 16 -9t19 -2h10q5 0 11 2q4 2 8.5 4t6.5 5q13 5 14 17z
M1741 316h-18v140h20q3 0 4 -4l74 -104q2 0 2 -5l2 -1v114h14v-140h-12l-82 114v4h-4v-118zM1596 632q9 7 9 16q0 12 -5.5 20t-12.5 14q-6 4 -6 6h-4l-4 2h-3q-4 0 -5 4h-4q-2 0 -5 1q-2 2 -4 3t-7 3l-7 5q-2 1 -3 2l-2 2l-1 2q0 1 -1 3t-1 4q0 4 4 8q0 2 4 6q2 0 3 1t4 1
q2 2 11 2l4 -1q2 -1 5 -1q3 -3 8 -4q6 -3 8 -3q6 0 8 5l5 2q0 2 -2.5 4t-4.5 4q0 1 -3 4l-5 5q-3 0 -5.5 2.5t-6.5 4.5h-6l-5 1q-6 0 -10 -0.5t-8 -0.5l-13 -9q-5 -6 -7 -8.5t-6 -6.5q-1 -4 -3 -7t-2 -9q0 -4 2 -7.5t3 -10.5l10 -11q5 -2 7.5 -5t6.5 -3q4 -2 7.5 -4t6.5 -2
q4 -2 7 -2t6 -2q6 0 10 -4l4 -3q2 -2 2 -6q2 -2 2 -6v-9q0 -3 -2 -5q0 -6 -6 -7q-6 -5 -7 -6t-3 -1q-7 0 -8 -1t-5 -1q-3 0 -6.5 1t-5.5 1q-2 1 -4 3l-4 4l-2 1q-5 4 -10 4h-7q-2 0 -4 -2l-6 -2q2 -1 2 -2t2 -1q0 -3 1 -4l3 -3v-2q6 -6 9 -6q7 -7 14.5 -9t17.5 -2h12
q3 0 11 2q3 2 6.5 4t7.5 5l5 8q3 3 4 9zM78 350q-6 6 -7 17l-3 10q-1 3 -1 10t4 16l2 10t5 10l4 6l5 7q2 2 6.5 4.5t6.5 4.5q6 7 11 8t9 3q3 0 8 1.5t10 1.5q7 0 14.5 -1.5t13.5 -5.5q8 -2 12.5 -6.5t8.5 -9.5q-2 -2 -4 -2v-4h-13q-4 2 -7 5t-7 3h-36l-22 -12
q-4 -3 -7.5 -7.5t-4.5 -10.5q-2 -7 -3 -13t-1 -8q0 -9 4 -13q0 -5 0.5 -10t0.5 -8l5 -4q4 -1 6 -7l7 -4q3 -1 8 -1q3 -4 5.5 -5t6.5 -3h33q2 2 7 3t9 5v29h-14v2q-2 0 -3 1.5t-3 3.5h-2q-1 1 -1 3v4h36v-51q-2 -5 -3.5 -6t-5.5 -8h-12q-8 -2 -12 -2h-34q-4 0 -9 3.5t-11 7.5
q-2 0 -6.5 2.5t-6.5 6.5q-3 4 -5 6.5t-4 7.5zM240 438v-44h56v-15h-56v-47h67v-16h-84v140h84v-18h-67zM1171 438v-44h60v-15h-60v-47h68v-16h-84v140h84v-18h-68zM2375 759h-20q-3 0 -8 -5q-6 -5 -6 -10l-37 -47h-2q0 -2 -2 -2v2l-39 47q-1 7 -4 10q-5 5 -11 5h-18l58 -77
v-2q0 -2 2 -2l2 -2v-72h21v70q2 0 2 2l2 4v2zM641 456v-85q0 -7 2 -10t5 -5q0 -6 3.5 -9.5t5.5 -4.5q0 -2 4.5 -4t6.5 -4q6 -2 8 -2h16q1 0 5 2l9 4q2 1 3.5 2t3.5 2q3 1 8 14q4 3 4 15v85h14v-85q0 -12 -4 -23t-12 -16q-2 -5 -6.5 -9.5t-8.5 -4.5q-8 -1 -13.5 -1.5
t-10.5 -0.5t-11 0.5t-14 1.5q-2 0 -6.5 4.5l-9.5 9.5l-10 16q-1 6 -3.5 11t-2.5 12v85h14zM2253 625h-69v134h-21v-155h90v21zM1271 625h-67v134h-20v-155h87v21zM1452 336q1 2 2 3.5t2 3.5q2 2 3 6.5t1 6.5q0 9 -2 11t-3 4.5t-3 4.5q-1 1 -8 3q-4 0 -6 2t-6 2q-8 0 -14 6
q-9 0 -13 7q-2 0 -3.5 3.5t-3.5 7.5v22q0 1 2 7q0 8 7 9l6 7q2 1 3.5 2t3.5 2q5 0 7.5 1.5t8.5 1.5l6 -2l4 -1q4 0 5 -1t5 -3q2 0 4 -3.5t2 -5.5q4 0 6 -3l1 -2l-2 -2q-6 -2 -9 -2h-6q-2 2 -2 4h-23q-9 0 -9 -2q-5 -7 -5 -8q-4 0 -4 -8q0 -5 4 -6q0 -5 3 -6q0 -1 3 -4l4 -1
q4 -4 7.5 -4t7.5 -3q3 0 4 -1l2 -1q4 0 8 -5h4q2 0 4 -2h2q5 -4 8.5 -7t5.5 -4q1 -5 1.5 -10.5t0.5 -9.5v-10q0 -5 -4 -6q-3 -4 -5.5 -7.5t-6.5 -5.5q-2 -2 -6 -5.5t-6 -3.5q-6 -2 -10 -2h-9q-11 0 -18.5 1t-12.5 10q-2 0 -3.5 2.5t-5.5 4.5v4l-2 2l4 2h7q1 0 3 -1t4 -1
q4 -4 6.5 -5t4.5 -3h22q8 0 12 4zM1069 316l-59 140h6q6 0 8 -2t3 -2t3 -7l43 -103v-2l2 -6v6l2 2q5 14 13 27.5t12 24.5q4 16 10 28t12 23q0 7 1.5 7t1.5 2q6 2 7 2h11q-8 -18 -15.5 -35t-16.5 -34q-4 -9 -7 -18.5t-6 -18.5l-16 -34h-15zM532 438v-49h60v-12h-60v-61h-16
v140h85v-18h-69zM1959 438v-49h54v-12h-54v-61h-16v140h81v-18h-65zM879 456v-124h63v-16h-80v140h17zM371 316v122h-46v18h105v-18h-47v-122h-12zM784 456v-124h64v-16h-80v140h16zM270 728q2 -1 3 -4t3 -5q4 -4 4 -9v-4q0 -5 -4 -9q-2 -2 -3 -4.5t-3 -2.5l-4 -4l-4 -4h-46
v53h36q4 0 10 -2q1 0 4 -3zM1325 389q4 0 6 3q4 4 9 4l2 5q0 2 5 6q0 1 1 4t1 7q0 2 -1 3.5t-1 4.5q-7 3 -7 8q-5 0 -9 4h-44v-49h38zM2101 392q4 4 7 4q7 7 7 11q2 4 2 11q0 4 -2 8q0 2 -7 8q-3 0 -7 4h-44v-49h36q3 0 8 3zM1525 456v-140h-18v140h18zM518 701l-4 -7
q-2 0 -3 -2t-3 -2q-2 -2 -10 -2h-33v47h33q4 0 10 -2q2 0 6 -5q1 -2 2 -3.5t2 -3.5q3 -2 3 -9q0 -5 -3 -11zM684 129l-27 69q0 2 -1 3l-1 2q0 4 -3 6v-6l-1 -2q-1 -1 -1 -3l-27 -69h61zM1093 727v-4l27 -64h-59l30 64v5zM1755 82q6 0 6 -6q2 -2 2 -5v-4q0 -9 -2 -11
q0 -5 -6 -9q-3 0 -6 -4h-17q-4 4 -11 4q0 2 -5 9q-2 2 -2 11v4q0 3 2 5l3 4l2 2q7 4 11 4q1 3 4 3h10q3 0 3 -3q3 0 6 -4z" />
    <glyph glyph-name="two" unicode="2" 
d="M2478 1093v-587h-2404v587h910q0 30 5.5 58t20.5 53q12 29 26 52.5t37 41.5q39 42 91 62q28 12 55.5 17t56.5 5q33 0 61.5 -6.5t53.5 -15.5q27 -14 50.5 -29.5t45.5 -36.5q35 -38 60 -94q11 -27 15.5 -54t4.5 -53h911zM1030 1194q-20 -49 -20 -101q0 -58 20 -106
q10 -22 24.5 -43.5t29.5 -42.5q20 -17 41.5 -32t45.5 -25q46 -23 105 -23q31 0 56.5 4.5t47.5 16.5q48 19 83 57q22 20 35.5 41t26.5 43q20 54 20 110q0 20 -3.5 43.5t-11.5 47.5q-14 40 -43 72q-14 20 -29.5 33.5t-34.5 25.5l-76 36q-16 3 -33 6t-38 3q-29 0 -55.5 -5.5
t-51.5 -19.5q-50 -19 -85 -57q-17 -19 -30.5 -39.5t-23.5 -44.5zM1142 936l314 317q62 -80 62 -160q0 -24 -3.5 -45.5t-11.5 -41.5q-8 -19 -17.5 -37t-23.5 -33h-320zM1095 928q-14 17 -25 36.5t-19 39.5q-9 18 -12.5 40.5t-3.5 48.5q0 18 3.5 39t12.5 43q7 35 40 68h318z
M1135 207q2 -4 4.5 -11t5.5 -14q2 -10 2 -14v-32q0 -5 -2 -11l-6 -15l-4 -14q-6 -4 -10.5 -10t-8.5 -10q-6 -5 -11 -10.5t-10 -9.5q-9 -5 -15.5 -7t-12.5 -4q-10 -2 -15 -2h-17q-9 0 -19 2t-23 4q-12 6 -18.5 13t-17.5 14q-15 14 -21 35q-4 10 -6 19.5t-2 23.5v14q0 4 2 14
q4 17 12 25q4 8 7.5 13t7.5 11q9 5 13.5 9.5t10.5 9.5l12 4l17 6q5 0 11.5 1t13.5 1q10 0 17 -1t15 -1q6 -4 12.5 -6t15.5 -4q5 -5 10 -9.5t11 -9.5q4 -6 8.5 -11t10.5 -13zM2195 207q4 -4 6.5 -11t4.5 -14q4 -7 4 -14v-32q0 -7 -4 -11q-2 -7 -4.5 -15t-6.5 -14l-16 -20
l-12 -10l-14 -10q-5 -5 -12 -7t-13 -4q-8 -2 -14 -2h-17q-19 0 -43 6q-8 6 -16 13t-17 14q-8 6 -14 14t-8 21q-6 10 -7.5 19.5t-1.5 23.5q0 8 1 14t1 14l6 14t7 11q2 8 6 13t10 11q3 5 10.5 9.5t12.5 9.5q4 2 11 4t13 6q11 0 17 1t12 1q9 0 17 -1t14 -1q6 -4 13 -6t12 -4
l26 -19q2 -6 8 -11t8 -13zM2433 260l1 1q1 1 6 1h38v-219h-38v160l-5 -9v-8q0 -2 -2 -4q-6 -16 -13 -34.5t-16 -31.5q-6 -20 -12 -36.5t-14 -36.5h-37l-55 139q-6 3 -6 12q0 4 -1 4l-2 2v-157h-42v219h40q5 0 6.5 -1t4.5 -1q2 -2 3 -2t4 -2l7 -4q0 -2 2 -3.5t2 -3.5
q4 -18 11 -32.5t16 -34.5l12 -33q3 -8 6 -15l6 -14v-14q3 0 4 -4q0 4 1 4v14l11 13l44 116q0 1 2 3l2 4q0 1 3 3l3 1q2 2 4 2t4 2zM1329 262h38v-219h-36l-100 146l-4 5v2q-3 4 -3 5q-4 1 -4 4q0 4 -7 4v-166h-37v219h33q4 0 9.5 -1t5.5 -3q3 -2 5 -2t4 -2l22 -33
q6 -8 11 -16.5t10 -19.5q13 -13 24 -29t25 -29q0 -2 1 -4.5t1 -6.5l1 -3q0 -2 1 -3v152zM672 262l94 -219h-25q-9 0 -16 4q-2 2 -4 6.5t-6 8.5l-14 27h-100l-9 -27q0 -6 -4 -6q-2 -5 -4 -5l-3 -4q-2 0 -4.5 -1t-6.5 -1q0 -2 -2 -2h-27l96 219h35zM260 262h139v-39h-100v-49
h82v-41h-82v-51h100v-39h-139v219zM839 659q1 7 2 11t1 10q0 12 -3 21q0 7 -4.5 10.5t-6.5 9.5q-2 3 -4.5 6.5t-6.5 7.5l-7 6q-2 3 -9 9q-4 2 -8 4.5t-11 4.5q-5 0 -9.5 0.5t-10.5 0.5q-3 0 -8.5 -0.5t-12.5 -0.5q-6 -2 -10 -4.5t-8 -4.5q-4 -6 -7.5 -8.5t-7.5 -6.5
q-13 -7 -14 -14q-4 -6 -5 -9.5l-3 -10.5q-1 -5 -1.5 -10t-0.5 -11t2 -14.5t4 -15.5t6.5 -12.5t11.5 -12.5q10 -15 25 -15q10 -6 29 -6h20q15 5 19 8q11 4 16 13q3 4 6 7.5t5 8.5q2 4 6.5 9t4.5 9zM1966 659v42l-7 20q-5 7 -15 14q-1 4 -6 6.5t-10 8.5l-4 2t-5 2l-7 5
q-7 0 -12 0.5t-10 0.5q-6 0 -11 -0.5t-9 -0.5l-22 -9q-3 -6 -6 -8.5t-7 -6.5q-3 -4 -6.5 -7t-5.5 -7q-2 -6 -4.5 -9.5t-2.5 -10.5q-6 -9 -6 -21q0 -6 3 -14.5t6 -15.5q4 -15 16 -25q7 -15 26 -15q10 -6 29 -6h22q3 2 8 4t8 4l10 6t6 7q11 8 15 16zM74 262h158v-24
q0 -4 -1 -6q0 -3 -2 -5l-4 -4l-105 -143h1l2 2h108v-39h-164v13q0 11 2 13q0 2 5 7v4l2 4q2 2 4 3.5t2 6.5l94 129h-102v39zM1839 203q-4 -4 -7 -10.5t-7 -14.5q-2 -4 -4 -10t-2 -14q0 -7 2 -15l4 -12q2 -7 6 -14.5t8 -10.5q4 -4 9.5 -8.5t14.5 -7.5q12 -4 27 -4q5 0 10 1
t12 1q3 2 8 5t8 7q3 0 9 2h13q3 0 9 -2q2 -1 3.5 -3t3.5 -4l6 -7q-3 -4 -6 -7.5t-7 -7.5q-7 -5 -11.5 -8t-12.5 -6q-7 -4 -11.5 -5t-10.5 -3t-11 -2h-12q-12 0 -23.5 2t-21.5 4q-10 5 -18.5 12t-16.5 15q-16 13 -22 35q-4 10 -7 19.5t-3 23.5q0 10 1 14l4 14q1 7 3 14t6 11
q6 8 8.5 13t9.5 11q14 9 25 19q4 2 9.5 4t18.5 6q5 0 12 1t15 1h13q4 0 10 -2t10.5 -3t11.5 -3q8 -4 12.5 -6.5t11.5 -7.5l13 -17l-6 -8q-2 -1 -5 -4l-2 -4h-15q-7 0 -16 4l-16 10q-10 2 -12 2h-10q-17 0 -27 -7q-17 -1 -24 -13zM1690 151l7 -10.5t3 -7.5q6 -8 6 -20
q0 -15 -8 -29l-8 -12l-9 -10q-7 -6 -11.5 -9.5t-12.5 -5.5q-5 -2 -14 -3t-15 -1q-8 0 -14.5 1l-19.5 3q-5 2 -10 6.5t-11 13.5q-4 1 -6 5l-4 8q-7 2 -7 9l7 5q2 2 4 2h4l2 2h10q4 0 4 -2q7 0 9 -2q7 -5 10.5 -6.5t5.5 -3.5q2 0 6 -1t10 -1h5q2 0 6 2q5 1 8 2t7 3q6 6 7 9
q2 4 4 7.5t2 7.5q0 7 -6 10q-5 6 -7 6q-2 4 -7.5 5t-7.5 2q-6 0 -14 7q-5 0 -9 1t-9 7q-11 3 -14.5 6t-7.5 7q-12 4 -12 14q-6 10 -6 25q0 18 6 26l6 11l8 10q4 2 10 4t13 6q6 0 10.5 1t13.5 1q4 0 8.5 -1t11.5 -1l15 -6q3 -4 6.5 -6.5t7.5 -7.5q4 -2 7.5 -5.5t3.5 -7.5
l-7 -4q-4 -2 -7 -4.5t-3 -3.5h-18l-5 1l-7 5q-2 0 -4 1t-4 1h-17q-2 0 -3 -1t-5 -3q-2 -3 -6 -6q-1 -3 -1 -10q0 -5 1 -5q2 -2 3 -5.5t3 -7.5h6q1 0 5 -2q5 -1 9.5 -3t10.5 -4l9 -2q5 -4 9 -5t9 -5q5 -2 10 -5t8 -8zM1579 336q-12 7 -16 20q-7 17 -7 31v16l11 20l12 13
q6 7 12 9q3 7 9.5 8t9.5 3q4 0 8 1.5t10 1.5q4 0 10.5 -1.5t10.5 -1.5q5 -2 8.5 -3t7.5 -8q2 -2 5.5 -4.5t6.5 -4.5l13 -13l8 -20q0 -4 1 -9t1 -7q0 -6 -1 -14t-5 -17q-5 -13 -17 -20q-5 -4 -9.5 -7.5t-11.5 -10.5q-5 -1 -12 -1.5t-16 -0.5h-15q-4 0 -10 2q-18 7 -24 18z
M2284 336q-7 -4 -13.5 -7.5t-11.5 -10.5q-8 -2 -12 -2h-30q-5 0 -13 2q-7 4 -12.5 8.5t-10.5 9.5q-6 6 -13 20q-2 9 -4.5 17t-2.5 14q0 2 1 7t1 9q3 5 4 10t4 10q2 3 5 6t5 7q6 4 18 9q3 7 8 8t7 3q6 0 9 1.5t10 1.5q2 0 8.5 -1.5t11.5 -1.5q4 -2 7.5 -3t6.5 -8l17 -9
q2 -4 4 -7t5 -6q2 -5 4 -9.5t3 -10.5q2 -4 3 -9t1 -7q0 -6 -1 -14t-5 -17q0 -6 -5 -11zM2166 127q5 12 5 27q0 16 -5 24q-3 9 -8 15.5t-8 9.5q-10 10 -24 13q-4 5 -12 6t-17 1q-12 0 -25 -7q-8 -1 -13 -4t-11 -9q-4 -3 -7.5 -9.5t-8.5 -15.5q0 -4 -1 -10t-1 -14q0 -9 1 -15
t1 -12q4 -8 8 -14t8 -11q6 -4 11 -8.5t13 -7.5q7 -2 14 -3t11 -1q9 0 17 1t12 3q8 3 14 7.5t10 8.5q11 11 16 25zM1104 127q4 11 4 27q0 13 -4 24q-2 9 -6.5 15.5t-13.5 9.5q-2 6 -7.5 9t-11.5 4q-11 7 -30 7q-14 0 -25 -7q-11 -1 -23 -13q-6 -3 -9 -9.5t-5 -15.5
q-5 -5 -5 -10v-29q0 -5 5 -12q2 -7 5 -14.5t9 -10.5q6 -4 11 -8.5t12 -7.5q11 -4 25 -4q19 0 30 4q13 7 19 16q9 3 13.5 10.5t6.5 14.5zM774 262h139v-39h-100v-55h82v-39h-82v-86h-39v219zM570 223h-58v-180h-43v180h-62v39h163v-39zM1188 864q-19 7 -37 19t-35 26h322
q-18 -14 -36 -26t-36 -19q-24 -6 -45.5 -11t-44.5 -5q-25 0 -45.5 5t-42.5 11zM1389 262h165v-39h-65v-180h-39v180h-61v39zM1366 1315q18 -8 36 -20.5t36 -22.5h-325q38 30 75 43q37 18 88 18q48 0 90 -18zM559 604l-47 68q4 0 11 4q8 5 9 10q9 5 9 11v26q0 1 -2 5
q-3 10 -11 15q-5 9 -14 9q-2 5 -6.5 6t-9.5 1h-57v-155h24v64h23l40 -56q1 -4 8 -6q2 -2 3 -2h20zM1169 604l-67 155h-22l-65 -155h11q7 0 9 2q0 2 7 6l11 27h76l13 -27q1 -4 5 -6q2 -2 8 -2h14zM1930 721q3 -2 8 -7.5t6 -12.5q4 -7 4 -21q0 -12 -4 -23q-1 -5 -6 -9.5
t-8 -6.5q-5 -4 -9 -6.5t-8 -7.5q-9 -4 -23 -4q-6 0 -12 1t-10 3q-5 5 -10.5 7.5t-9.5 6.5q-3 2 -6 6.5t-3 9.5q-4 7 -5 12t-1 11q0 10 6 21q0 7 3 12.5t6 7.5q4 4 9.5 7t10.5 5q9 4 22 4q5 0 11.5 -1t11.5 -3zM801 721q7 -2 9.5 -7.5t4.5 -12.5q4 -7 4 -21q0 -11 -4 -23
q-2 -5 -4.5 -9.5t-9.5 -6.5q-1 -4 -6 -7l-11 -7q-9 -4 -22 -4q-11 0 -23 4q-4 5 -9 7.5t-9 6.5q-2 2 -5.5 6.5t-5.5 9.5q-4 12 -4 23q0 12 4 21q2 7 5.5 12.5t5.5 7.5q4 4 9 7t9 5q5 2 12.5 3t10.5 1q13 0 22 -4q8 -2 11.5 -5t5.5 -7zM2126 759h-22v-120q-1 2 -2 5t-3 4
l-75 104l-3 7h-24v-155h22v121l2 -2l87 -119h18v155zM2218 332h31l6 3q3 3 4 5q6 0 14 5q2 5 3 7t4 4q0 3 3 8t3 10v34q-3 6 -7 10.5t-6 7.5q-10 4 -18 12h-43q-6 -4 -9.5 -7t-9.5 -5q-5 -3 -7.5 -7.5t-4.5 -10.5q-1 -4 -1.5 -7t-0.5 -7v-20q0 -13 5 -18q2 -2 4.5 -4t4.5 -7
l7 -3q2 -2 4 -2q4 -4 7 -5t7 -3zM296 690q5 12 5 20q0 9 -5 18q0 2 -5 7l-6 6q-2 3 -5 7t-10 4q-3 5 -8.5 6t-9.5 1h-52v-155h16v59h36q4 0 9.5 0.5t8.5 2.5q10 4 15 10q4 2 7.5 6t3.5 8zM1579 408q-6 -14 -6 -21v-8q0 -4 3 -5q0 -10 5 -18q0 -2 2 -4t4 -7l5 -3q2 -2 11 -2
q2 -4 5.5 -5t5.5 -3h27q6 2 9.5 3t6.5 5l6 2l4 3q2 5 4.5 7t2.5 4q3 3 4 8t3 10q0 2 1 5.5t1 7.5q0 2 -1 8t-5 13q0 6 -4 10.5t-6 7.5q-3 1 -8 6l-10 6h-42q-4 -4 -10 -7l-10 -5l-5 -8q-3 -5 -3 -10zM997 759h-18v-120l-2 4q-2 6 -2 5l-74 104q-5 0 -6 7h-25v-155h21v124h2
l2 -1v-4l86 -119h16v155zM2115 381q-5 -1 -8.5 -2t-5.5 -2l45 -61h-12l-6 2q-4 0 -4 9l-39 50h-28v-61h-15v140h57q3 0 9 -2q2 -2 6.5 -5.5t5.5 -5.5q4 -2 5 -5.5t7 -7.5v-27q-4 -4 -5 -8t-3 -6zM1342 381q-3 -3 -11 -4l47 -61h-15q-3 0 -3 2q-6 0 -6 9l-39 50h-28v-61h-13
v140h56q2 0 6 -2q10 -1 18 -11q0 -2 3 -5.5t3 -7.5q2 -2 2 -6v-14q0 -1 -2 -7q0 -10 -4 -14l-5 -4q-3 -3 -9 -4zM412 759h-98v-155h98v21h-74v47h58v18h-58v45h74v24zM1721 759h-93v-155h93v21h-69v47h58v18h-58v45h69v24zM2460 454q6 2 5 2h13v-140h-12v114l-2 -2v-2
q-4 -8 -6.5 -17.5t-8.5 -14.5q-5 -7 -7 -12.5t-7 -14.5q-2 -9 -3 -15.5t-5 -9.5q-3 -8 -6.5 -12.5t-5.5 -13.5h-15q-10 14 -15 27t-10 28q-4 12 -12 26.5t-12 28.5v2h-4v-112h-14v140h14q4 0 6 -2l2 -2v-7l49 -105q0 -4 2 -4l1 2v4q0 2 8 6l41 97q2 7 3 7t1 2zM1480 759h-22
v-104q0 -4 -2 -8q-1 -7 -10 -12q0 -2 -4 -3.5t-6 -6.5l-9 -2h-9q-7 0 -13 2q-5 5 -8.5 6.5t-5.5 3.5l-11 12q0 3 -1 7.5t-1 11.5v93h-20v-93q0 -7 1 -11.5t1 -7.5q0 -8 6 -14q3 -8 10 -12q2 -4 4.5 -6.5t8.5 -4.5q2 -2 6.5 -3t7.5 -3q4 0 7 -1.5t8 -1.5t8.5 1.5t11.5 1.5
q2 2 5 3t7 3q3 2 6 4.5t6 6.5q3 2 5 5.5t7 6.5q0 4 3 7t3 7v112zM664 632q2 5 3 8t1 8q0 12 -5.5 20t-12.5 14q-2 0 -3.5 2t-5.5 4l-4 2h-4q-1 0 -1 4q-8 0 -9 1q-8 2 -9.5 3t-5.5 3q-6 5 -9 5q-3 4 -3 6v15q0 1 1.5 2.5t1.5 3.5q2 0 4.5 1t4.5 1q6 2 5 2h10q2 -2 4 -2
q7 0 8 -4q1 -3 4 -3h2q9 0 14 5l4 2q0 2 -2 4l-5 4q-2 1 -4.5 4t-6.5 5q-2 0 -4 2.5t-5 4.5q-5 0 -7 0.5t-4 0.5q-7 0 -12 -0.5t-8 -0.5q-5 -2 -7 -4.5t-6 -4.5q-2 -6 -5.5 -8.5t-8.5 -6.5q0 -4 -2 -7t-2 -9t4 -18l12 -11q2 -2 6 -5t7 -3q5 -2 8 -4t7 -2q1 -2 6 -2t7 -2
l6 -2q2 0 4 -2t2 -3t2 -6q2 -2 2 -7v-9q0 -2 -2 -4t-2 -4t-2 -3q-2 -5 -6 -6l-4 -1q-4 0 -8 -1t-5 -1q-4 0 -7 1t-6 1q-2 0 -3.5 1t-1.5 6l-4 1q-4 4 -11 4h-7l-4 -2l-5 -2q0 -3 3 -3q0 -3 2 -5q0 -4 4 -4v-6h5q7 -7 16 -9t19 -2h10q5 0 11 2q4 2 8.5 4t6.5 5q13 5 14 17z
M1741 316h-18v140h20q3 0 4 -4l74 -104q2 0 2 -5l2 -1v114h14v-140h-12l-82 114v4h-4v-118zM1596 632q9 7 9 16q0 12 -5.5 20t-12.5 14q-6 4 -6 6h-4l-4 2h-3q-4 0 -5 4h-4q-2 0 -5 1q-2 2 -4 3t-7 3l-7 5q-2 1 -3 2l-2 2l-1 2q0 1 -1 3t-1 4q0 4 4 8q0 2 4 6q2 0 3 1t4 1
q2 2 11 2l4 -1q2 -1 5 -1q3 -3 8 -4q6 -3 8 -3q6 0 8 5l5 2q0 2 -2.5 4t-4.5 4q0 1 -3 4l-5 5q-3 0 -5.5 2.5t-6.5 4.5h-6l-5 1q-6 0 -10 -0.5t-8 -0.5l-13 -9q-5 -6 -7 -8.5t-6 -6.5q-1 -4 -3 -7t-2 -9q0 -4 2 -7.5t3 -10.5l10 -11q5 -2 7.5 -5t6.5 -3q4 -2 7.5 -4t6.5 -2
q4 -2 7 -2t6 -2q6 0 10 -4l4 -3q2 -2 2 -6q2 -2 2 -6v-9q0 -3 -2 -5q0 -6 -6 -7q-6 -5 -7 -6t-3 -1q-7 0 -8 -1t-5 -1q-3 0 -6.5 1t-5.5 1q-2 1 -4 3l-4 4l-2 1q-5 4 -10 4h-7q-2 0 -4 -2l-6 -2q2 -1 2 -2t2 -1q0 -3 1 -4l3 -3v-2q6 -6 9 -6q7 -7 14.5 -9t17.5 -2h12
q3 0 11 2q3 2 6.5 4t7.5 5l5 8q3 3 4 9zM78 350q-6 6 -7 17l-3 10q-1 3 -1 10t4 16l2 10t5 10l4 6l5 7q2 2 6.5 4.5t6.5 4.5q6 7 11 8t9 3q3 0 8 1.5t10 1.5q7 0 14.5 -1.5t13.5 -5.5q8 -2 12.5 -6.5t8.5 -9.5q-2 -2 -4 -2v-4h-13q-4 2 -7 5t-7 3h-36l-22 -12
q-4 -3 -7.5 -7.5t-4.5 -10.5q-2 -7 -3 -13t-1 -8q0 -9 4 -13q0 -5 0.5 -10t0.5 -8l5 -4q4 -1 6 -7l7 -4q3 -1 8 -1q3 -4 5.5 -5t6.5 -3h33q2 2 7 3t9 5v29h-14v2q-2 0 -3 1.5t-3 3.5h-2q-1 1 -1 3v4h36v-51q-2 -5 -3.5 -6t-5.5 -8h-12q-8 -2 -12 -2h-34q-4 0 -9 3.5t-11 7.5
q-2 0 -6.5 2.5t-6.5 6.5q-3 4 -5 6.5t-4 7.5zM240 438v-44h56v-15h-56v-47h67v-16h-84v140h84v-18h-67zM1171 438v-44h60v-15h-60v-47h68v-16h-84v140h84v-18h-68zM2375 759h-20q-3 0 -8 -5q-6 -5 -6 -10l-37 -47h-2q0 -2 -2 -2v2l-39 47q-1 7 -4 10q-5 5 -11 5h-18l58 -77
v-2q0 -2 2 -2l2 -2v-72h21v70q2 0 2 2l2 4v2zM641 456v-85q0 -7 2 -10t5 -5q0 -6 3.5 -9.5t5.5 -4.5q0 -2 4.5 -4t6.5 -4q6 -2 8 -2h16q1 0 5 2l9 4q2 1 3.5 2t3.5 2q3 1 8 14q4 3 4 15v85h14v-85q0 -12 -4 -23t-12 -16q-2 -5 -6.5 -9.5t-8.5 -4.5q-8 -1 -13.5 -1.5
t-10.5 -0.5t-11 0.5t-14 1.5q-2 0 -6.5 4.5l-9.5 9.5l-10 16q-1 6 -3.5 11t-2.5 12v85h14zM2253 625h-69v134h-21v-155h90v21zM1271 625h-67v134h-20v-155h87v21zM1452 336q1 2 2 3.5t2 3.5q2 2 3 6.5t1 6.5q0 9 -2 11t-3 4.5t-3 4.5q-1 1 -8 3q-4 0 -6 2t-6 2q-8 0 -14 6
q-9 0 -13 7q-2 0 -3.5 3.5t-3.5 7.5v22q0 1 2 7q0 8 7 9l6 7q2 1 3.5 2t3.5 2q5 0 7.5 1.5t8.5 1.5l6 -2l4 -1q4 0 5 -1t5 -3q2 0 4 -3.5t2 -5.5q4 0 6 -3l1 -2l-2 -2q-6 -2 -9 -2h-6q-2 2 -2 4h-23q-9 0 -9 -2q-5 -7 -5 -8q-4 0 -4 -8q0 -5 4 -6q0 -5 3 -6q0 -1 3 -4l4 -1
q4 -4 7.5 -4t7.5 -3q3 0 4 -1l2 -1q4 0 8 -5h4q2 0 4 -2h2q5 -4 8.5 -7t5.5 -4q1 -5 1.5 -10.5t0.5 -9.5v-10q0 -5 -4 -6q-3 -4 -5.5 -7.5t-6.5 -5.5q-2 -2 -6 -5.5t-6 -3.5q-6 -2 -10 -2h-9q-11 0 -18.5 1t-12.5 10q-2 0 -3.5 2.5t-5.5 4.5v4l-2 2l4 2h7q1 0 3 -1t4 -1
q4 -4 6.5 -5t4.5 -3h22q8 0 12 4zM1069 316l-59 140h6q6 0 8 -2t3 -2t3 -7l43 -103v-2l2 -6v6l2 2q5 14 13 27.5t12 24.5q4 16 10 28t12 23q0 7 1.5 7t1.5 2q6 2 7 2h11q-8 -18 -15.5 -35t-16.5 -34q-4 -9 -7 -18.5t-6 -18.5l-16 -34h-15zM532 438v-49h60v-12h-60v-61h-16
v140h85v-18h-69zM1959 438v-49h54v-12h-54v-61h-16v140h81v-18h-65zM879 456v-124h63v-16h-80v140h17zM371 316v122h-46v18h105v-18h-47v-122h-12zM784 456v-124h64v-16h-80v140h16zM270 728q2 -1 3 -4t3 -5q4 -4 4 -9v-4q0 -5 -4 -9q-2 -2 -3 -4.5t-3 -2.5l-4 -4l-4 -4h-46
v53h36q4 0 10 -2q1 0 4 -3zM1325 389q4 0 6 3q4 4 9 4l2 5q0 2 5 6q0 1 1 4t1 7q0 2 -1 3.5t-1 4.5q-7 3 -7 8q-5 0 -9 4h-44v-49h38zM2101 392q4 4 7 4q7 7 7 11q2 4 2 11q0 4 -2 8q0 2 -7 8q-3 0 -7 4h-44v-49h36q3 0 8 3zM1525 456v-140h-18v140h18zM518 701l-4 -7
q-2 0 -3 -2t-3 -2q-2 -2 -10 -2h-33v47h33q4 0 10 -2q2 0 6 -5q1 -2 2 -3.5t2 -3.5q3 -2 3 -9q0 -5 -3 -11zM684 129l-27 69q0 2 -1 3l-1 2q0 4 -3 6v-6l-1 -2q-1 -1 -1 -3l-27 -69h61zM1093 727v-4l27 -64h-59l30 64v5zM1755 82q6 0 6 -6q2 -2 2 -5v-4q0 -9 -2 -11
q0 -5 -6 -9q-3 0 -6 -4h-17q-4 4 -11 4q0 2 -5 9q-2 2 -2 11v4q0 3 2 5l3 4l2 2q7 4 11 4q1 3 4 3h10q3 0 3 -3q3 0 6 -4z" />
    <glyph glyph-name="three" unicode="3" 
d="M2478 1093v-587h-2404v587h910q0 30 5.5 58t20.5 53q12 29 26 52.5t37 41.5q39 42 91 62q28 12 55.5 17t56.5 5q33 0 61.5 -6.5t53.5 -15.5q27 -14 50.5 -29.5t45.5 -36.5q35 -38 60 -94q11 -27 15.5 -54t4.5 -53h911zM1030 1194q-20 -49 -20 -101q0 -58 20 -106
q10 -22 24.5 -43.5t29.5 -42.5q20 -17 41.5 -32t45.5 -25q46 -23 105 -23q31 0 56.5 4.5t47.5 16.5q48 19 83 57q22 20 35.5 41t26.5 43q20 54 20 110q0 20 -3.5 43.5t-11.5 47.5q-14 40 -43 72q-14 20 -29.5 33.5t-34.5 25.5l-76 36q-16 3 -33 6t-38 3q-29 0 -55.5 -5.5
t-51.5 -19.5q-50 -19 -85 -57q-17 -19 -30.5 -39.5t-23.5 -44.5zM1142 936l314 317q62 -80 62 -160q0 -24 -3.5 -45.5t-11.5 -41.5q-8 -19 -17.5 -37t-23.5 -33h-320zM1095 928q-14 17 -25 36.5t-19 39.5q-9 18 -12.5 40.5t-3.5 48.5q0 18 3.5 39t12.5 43q7 35 40 68h318z
M1135 207q2 -4 4.5 -11t5.5 -14q2 -10 2 -14v-32q0 -5 -2 -11l-6 -15l-4 -14q-6 -4 -10.5 -10t-8.5 -10q-6 -5 -11 -10.5t-10 -9.5q-9 -5 -15.5 -7t-12.5 -4q-10 -2 -15 -2h-17q-9 0 -19 2t-23 4q-12 6 -18.5 13t-17.5 14q-15 14 -21 35q-4 10 -6 19.5t-2 23.5v14q0 4 2 14
q4 17 12 25q4 8 7.5 13t7.5 11q9 5 13.5 9.5t10.5 9.5l12 4l17 6q5 0 11.5 1t13.5 1q10 0 17 -1t15 -1q6 -4 12.5 -6t15.5 -4q5 -5 10 -9.5t11 -9.5q4 -6 8.5 -11t10.5 -13zM2195 207q4 -4 6.5 -11t4.5 -14q4 -7 4 -14v-32q0 -7 -4 -11q-2 -7 -4.5 -15t-6.5 -14l-16 -20
l-12 -10l-14 -10q-5 -5 -12 -7t-13 -4q-8 -2 -14 -2h-17q-19 0 -43 6q-8 6 -16 13t-17 14q-8 6 -14 14t-8 21q-6 10 -7.5 19.5t-1.5 23.5q0 8 1 14t1 14l6 14t7 11q2 8 6 13t10 11q3 5 10.5 9.5t12.5 9.5q4 2 11 4t13 6q11 0 17 1t12 1q9 0 17 -1t14 -1q6 -4 13 -6t12 -4
l26 -19q2 -6 8 -11t8 -13zM2433 260l1 1q1 1 6 1h38v-219h-38v160l-5 -9v-8q0 -2 -2 -4q-6 -16 -13 -34.5t-16 -31.5q-6 -20 -12 -36.5t-14 -36.5h-37l-55 139q-6 3 -6 12q0 4 -1 4l-2 2v-157h-42v219h40q5 0 6.5 -1t4.5 -1q2 -2 3 -2t4 -2l7 -4q0 -2 2 -3.5t2 -3.5
q4 -18 11 -32.5t16 -34.5l12 -33q3 -8 6 -15l6 -14v-14q3 0 4 -4q0 4 1 4v14l11 13l44 116q0 1 2 3l2 4q0 1 3 3l3 1q2 2 4 2t4 2zM1329 262h38v-219h-36l-100 146l-4 5v2q-3 4 -3 5q-4 1 -4 4q0 4 -7 4v-166h-37v219h33q4 0 9.5 -1t5.5 -3q3 -2 5 -2t4 -2l22 -33
q6 -8 11 -16.5t10 -19.5q13 -13 24 -29t25 -29q0 -2 1 -4.5t1 -6.5l1 -3q0 -2 1 -3v152zM672 262l94 -219h-25q-9 0 -16 4q-2 2 -4 6.5t-6 8.5l-14 27h-100l-9 -27q0 -6 -4 -6q-2 -5 -4 -5l-3 -4q-2 0 -4.5 -1t-6.5 -1q0 -2 -2 -2h-27l96 219h35zM260 262h139v-39h-100v-49
h82v-41h-82v-51h100v-39h-139v219zM839 659q1 7 2 11t1 10q0 12 -3 21q0 7 -4.5 10.5t-6.5 9.5q-2 3 -4.5 6.5t-6.5 7.5l-7 6q-2 3 -9 9q-4 2 -8 4.5t-11 4.5q-5 0 -9.5 0.5t-10.5 0.5q-3 0 -8.5 -0.5t-12.5 -0.5q-6 -2 -10 -4.5t-8 -4.5q-4 -6 -7.5 -8.5t-7.5 -6.5
q-13 -7 -14 -14q-4 -6 -5 -9.5l-3 -10.5q-1 -5 -1.5 -10t-0.5 -11t2 -14.5t4 -15.5t6.5 -12.5t11.5 -12.5q10 -15 25 -15q10 -6 29 -6h20q15 5 19 8q11 4 16 13q3 4 6 7.5t5 8.5q2 4 6.5 9t4.5 9zM1966 659v42l-7 20q-5 7 -15 14q-1 4 -6 6.5t-10 8.5l-4 2t-5 2l-7 5
q-7 0 -12 0.5t-10 0.5q-6 0 -11 -0.5t-9 -0.5l-22 -9q-3 -6 -6 -8.5t-7 -6.5q-3 -4 -6.5 -7t-5.5 -7q-2 -6 -4.5 -9.5t-2.5 -10.5q-6 -9 -6 -21q0 -6 3 -14.5t6 -15.5q4 -15 16 -25q7 -15 26 -15q10 -6 29 -6h22q3 2 8 4t8 4l10 6t6 7q11 8 15 16zM74 262h158v-24
q0 -4 -1 -6q0 -3 -2 -5l-4 -4l-105 -143h1l2 2h108v-39h-164v13q0 11 2 13q0 2 5 7v4l2 4q2 2 4 3.5t2 6.5l94 129h-102v39zM1839 203q-4 -4 -7 -10.5t-7 -14.5q-2 -4 -4 -10t-2 -14q0 -7 2 -15l4 -12q2 -7 6 -14.5t8 -10.5q4 -4 9.5 -8.5t14.5 -7.5q12 -4 27 -4q5 0 10 1
t12 1q3 2 8 5t8 7q3 0 9 2h13q3 0 9 -2q2 -1 3.5 -3t3.5 -4l6 -7q-3 -4 -6 -7.5t-7 -7.5q-7 -5 -11.5 -8t-12.5 -6q-7 -4 -11.5 -5t-10.5 -3t-11 -2h-12q-12 0 -23.5 2t-21.5 4q-10 5 -18.5 12t-16.5 15q-16 13 -22 35q-4 10 -7 19.5t-3 23.5q0 10 1 14l4 14q1 7 3 14t6 11
q6 8 8.5 13t9.5 11q14 9 25 19q4 2 9.5 4t18.5 6q5 0 12 1t15 1h13q4 0 10 -2t10.5 -3t11.5 -3q8 -4 12.5 -6.5t11.5 -7.5l13 -17l-6 -8q-2 -1 -5 -4l-2 -4h-15q-7 0 -16 4l-16 10q-10 2 -12 2h-10q-17 0 -27 -7q-17 -1 -24 -13zM1690 151l7 -10.5t3 -7.5q6 -8 6 -20
q0 -15 -8 -29l-8 -12l-9 -10q-7 -6 -11.5 -9.5t-12.5 -5.5q-5 -2 -14 -3t-15 -1q-8 0 -14.5 1l-19.5 3q-5 2 -10 6.5t-11 13.5q-4 1 -6 5l-4 8q-7 2 -7 9l7 5q2 2 4 2h4l2 2h10q4 0 4 -2q7 0 9 -2q7 -5 10.5 -6.5t5.5 -3.5q2 0 6 -1t10 -1h5q2 0 6 2q5 1 8 2t7 3q6 6 7 9
q2 4 4 7.5t2 7.5q0 7 -6 10q-5 6 -7 6q-2 4 -7.5 5t-7.5 2q-6 0 -14 7q-5 0 -9 1t-9 7q-11 3 -14.5 6t-7.5 7q-12 4 -12 14q-6 10 -6 25q0 18 6 26l6 11l8 10q4 2 10 4t13 6q6 0 10.5 1t13.5 1q4 0 8.5 -1t11.5 -1l15 -6q3 -4 6.5 -6.5t7.5 -7.5q4 -2 7.5 -5.5t3.5 -7.5
l-7 -4q-4 -2 -7 -4.5t-3 -3.5h-18l-5 1l-7 5q-2 0 -4 1t-4 1h-17q-2 0 -3 -1t-5 -3q-2 -3 -6 -6q-1 -3 -1 -10q0 -5 1 -5q2 -2 3 -5.5t3 -7.5h6q1 0 5 -2q5 -1 9.5 -3t10.5 -4l9 -2q5 -4 9 -5t9 -5q5 -2 10 -5t8 -8zM1579 336q-12 7 -16 20q-7 17 -7 31v16l11 20l12 13
q6 7 12 9q3 7 9.5 8t9.5 3q4 0 8 1.5t10 1.5q4 0 10.5 -1.5t10.5 -1.5q5 -2 8.5 -3t7.5 -8q2 -2 5.5 -4.5t6.5 -4.5l13 -13l8 -20q0 -4 1 -9t1 -7q0 -6 -1 -14t-5 -17q-5 -13 -17 -20q-5 -4 -9.5 -7.5t-11.5 -10.5q-5 -1 -12 -1.5t-16 -0.5h-15q-4 0 -10 2q-18 7 -24 18z
M2284 336q-7 -4 -13.5 -7.5t-11.5 -10.5q-8 -2 -12 -2h-30q-5 0 -13 2q-7 4 -12.5 8.5t-10.5 9.5q-6 6 -13 20q-2 9 -4.5 17t-2.5 14q0 2 1 7t1 9q3 5 4 10t4 10q2 3 5 6t5 7q6 4 18 9q3 7 8 8t7 3q6 0 9 1.5t10 1.5q2 0 8.5 -1.5t11.5 -1.5q4 -2 7.5 -3t6.5 -8l17 -9
q2 -4 4 -7t5 -6q2 -5 4 -9.5t3 -10.5q2 -4 3 -9t1 -7q0 -6 -1 -14t-5 -17q0 -6 -5 -11zM2166 127q5 12 5 27q0 16 -5 24q-3 9 -8 15.5t-8 9.5q-10 10 -24 13q-4 5 -12 6t-17 1q-12 0 -25 -7q-8 -1 -13 -4t-11 -9q-4 -3 -7.5 -9.5t-8.5 -15.5q0 -4 -1 -10t-1 -14q0 -9 1 -15
t1 -12q4 -8 8 -14t8 -11q6 -4 11 -8.5t13 -7.5q7 -2 14 -3t11 -1q9 0 17 1t12 3q8 3 14 7.5t10 8.5q11 11 16 25zM1104 127q4 11 4 27q0 13 -4 24q-2 9 -6.5 15.5t-13.5 9.5q-2 6 -7.5 9t-11.5 4q-11 7 -30 7q-14 0 -25 -7q-11 -1 -23 -13q-6 -3 -9 -9.5t-5 -15.5
q-5 -5 -5 -10v-29q0 -5 5 -12q2 -7 5 -14.5t9 -10.5q6 -4 11 -8.5t12 -7.5q11 -4 25 -4q19 0 30 4q13 7 19 16q9 3 13.5 10.5t6.5 14.5zM774 262h139v-39h-100v-55h82v-39h-82v-86h-39v219zM570 223h-58v-180h-43v180h-62v39h163v-39zM1188 864q-19 7 -37 19t-35 26h322
q-18 -14 -36 -26t-36 -19q-24 -6 -45.5 -11t-44.5 -5q-25 0 -45.5 5t-42.5 11zM1389 262h165v-39h-65v-180h-39v180h-61v39zM1366 1315q18 -8 36 -20.5t36 -22.5h-325q38 30 75 43q37 18 88 18q48 0 90 -18zM559 604l-47 68q4 0 11 4q8 5 9 10q9 5 9 11v26q0 1 -2 5
q-3 10 -11 15q-5 9 -14 9q-2 5 -6.5 6t-9.5 1h-57v-155h24v64h23l40 -56q1 -4 8 -6q2 -2 3 -2h20zM1169 604l-67 155h-22l-65 -155h11q7 0 9 2q0 2 7 6l11 27h76l13 -27q1 -4 5 -6q2 -2 8 -2h14zM1930 721q3 -2 8 -7.5t6 -12.5q4 -7 4 -21q0 -12 -4 -23q-1 -5 -6 -9.5
t-8 -6.5q-5 -4 -9 -6.5t-8 -7.5q-9 -4 -23 -4q-6 0 -12 1t-10 3q-5 5 -10.5 7.5t-9.5 6.5q-3 2 -6 6.5t-3 9.5q-4 7 -5 12t-1 11q0 10 6 21q0 7 3 12.5t6 7.5q4 4 9.5 7t10.5 5q9 4 22 4q5 0 11.5 -1t11.5 -3zM801 721q7 -2 9.5 -7.5t4.5 -12.5q4 -7 4 -21q0 -11 -4 -23
q-2 -5 -4.5 -9.5t-9.5 -6.5q-1 -4 -6 -7l-11 -7q-9 -4 -22 -4q-11 0 -23 4q-4 5 -9 7.5t-9 6.5q-2 2 -5.5 6.5t-5.5 9.5q-4 12 -4 23q0 12 4 21q2 7 5.5 12.5t5.5 7.5q4 4 9 7t9 5q5 2 12.5 3t10.5 1q13 0 22 -4q8 -2 11.5 -5t5.5 -7zM2126 759h-22v-120q-1 2 -2 5t-3 4
l-75 104l-3 7h-24v-155h22v121l2 -2l87 -119h18v155zM2218 332h31l6 3q3 3 4 5q6 0 14 5q2 5 3 7t4 4q0 3 3 8t3 10v34q-3 6 -7 10.5t-6 7.5q-10 4 -18 12h-43q-6 -4 -9.5 -7t-9.5 -5q-5 -3 -7.5 -7.5t-4.5 -10.5q-1 -4 -1.5 -7t-0.5 -7v-20q0 -13 5 -18q2 -2 4.5 -4t4.5 -7
l7 -3q2 -2 4 -2q4 -4 7 -5t7 -3zM296 690q5 12 5 20q0 9 -5 18q0 2 -5 7l-6 6q-2 3 -5 7t-10 4q-3 5 -8.5 6t-9.5 1h-52v-155h16v59h36q4 0 9.5 0.5t8.5 2.5q10 4 15 10q4 2 7.5 6t3.5 8zM1579 408q-6 -14 -6 -21v-8q0 -4 3 -5q0 -10 5 -18q0 -2 2 -4t4 -7l5 -3q2 -2 11 -2
q2 -4 5.5 -5t5.5 -3h27q6 2 9.5 3t6.5 5l6 2l4 3q2 5 4.5 7t2.5 4q3 3 4 8t3 10q0 2 1 5.5t1 7.5q0 2 -1 8t-5 13q0 6 -4 10.5t-6 7.5q-3 1 -8 6l-10 6h-42q-4 -4 -10 -7l-10 -5l-5 -8q-3 -5 -3 -10zM997 759h-18v-120l-2 4q-2 6 -2 5l-74 104q-5 0 -6 7h-25v-155h21v124h2
l2 -1v-4l86 -119h16v155zM2115 381q-5 -1 -8.5 -2t-5.5 -2l45 -61h-12l-6 2q-4 0 -4 9l-39 50h-28v-61h-15v140h57q3 0 9 -2q2 -2 6.5 -5.5t5.5 -5.5q4 -2 5 -5.5t7 -7.5v-27q-4 -4 -5 -8t-3 -6zM1342 381q-3 -3 -11 -4l47 -61h-15q-3 0 -3 2q-6 0 -6 9l-39 50h-28v-61h-13
v140h56q2 0 6 -2q10 -1 18 -11q0 -2 3 -5.5t3 -7.5q2 -2 2 -6v-14q0 -1 -2 -7q0 -10 -4 -14l-5 -4q-3 -3 -9 -4zM412 759h-98v-155h98v21h-74v47h58v18h-58v45h74v24zM1721 759h-93v-155h93v21h-69v47h58v18h-58v45h69v24zM2460 454q6 2 5 2h13v-140h-12v114l-2 -2v-2
q-4 -8 -6.5 -17.5t-8.5 -14.5q-5 -7 -7 -12.5t-7 -14.5q-2 -9 -3 -15.5t-5 -9.5q-3 -8 -6.5 -12.5t-5.5 -13.5h-15q-10 14 -15 27t-10 28q-4 12 -12 26.5t-12 28.5v2h-4v-112h-14v140h14q4 0 6 -2l2 -2v-7l49 -105q0 -4 2 -4l1 2v4q0 2 8 6l41 97q2 7 3 7t1 2zM1480 759h-22
v-104q0 -4 -2 -8q-1 -7 -10 -12q0 -2 -4 -3.5t-6 -6.5l-9 -2h-9q-7 0 -13 2q-5 5 -8.5 6.5t-5.5 3.5l-11 12q0 3 -1 7.5t-1 11.5v93h-20v-93q0 -7 1 -11.5t1 -7.5q0 -8 6 -14q3 -8 10 -12q2 -4 4.5 -6.5t8.5 -4.5q2 -2 6.5 -3t7.5 -3q4 0 7 -1.5t8 -1.5t8.5 1.5t11.5 1.5
q2 2 5 3t7 3q3 2 6 4.5t6 6.5q3 2 5 5.5t7 6.5q0 4 3 7t3 7v112zM664 632q2 5 3 8t1 8q0 12 -5.5 20t-12.5 14q-2 0 -3.5 2t-5.5 4l-4 2h-4q-1 0 -1 4q-8 0 -9 1q-8 2 -9.5 3t-5.5 3q-6 5 -9 5q-3 4 -3 6v15q0 1 1.5 2.5t1.5 3.5q2 0 4.5 1t4.5 1q6 2 5 2h10q2 -2 4 -2
q7 0 8 -4q1 -3 4 -3h2q9 0 14 5l4 2q0 2 -2 4l-5 4q-2 1 -4.5 4t-6.5 5q-2 0 -4 2.5t-5 4.5q-5 0 -7 0.5t-4 0.5q-7 0 -12 -0.5t-8 -0.5q-5 -2 -7 -4.5t-6 -4.5q-2 -6 -5.5 -8.5t-8.5 -6.5q0 -4 -2 -7t-2 -9t4 -18l12 -11q2 -2 6 -5t7 -3q5 -2 8 -4t7 -2q1 -2 6 -2t7 -2
l6 -2q2 0 4 -2t2 -3t2 -6q2 -2 2 -7v-9q0 -2 -2 -4t-2 -4t-2 -3q-2 -5 -6 -6l-4 -1q-4 0 -8 -1t-5 -1q-4 0 -7 1t-6 1q-2 0 -3.5 1t-1.5 6l-4 1q-4 4 -11 4h-7l-4 -2l-5 -2q0 -3 3 -3q0 -3 2 -5q0 -4 4 -4v-6h5q7 -7 16 -9t19 -2h10q5 0 11 2q4 2 8.5 4t6.5 5q13 5 14 17z
M1741 316h-18v140h20q3 0 4 -4l74 -104q2 0 2 -5l2 -1v114h14v-140h-12l-82 114v4h-4v-118zM1596 632q9 7 9 16q0 12 -5.5 20t-12.5 14q-6 4 -6 6h-4l-4 2h-3q-4 0 -5 4h-4q-2 0 -5 1q-2 2 -4 3t-7 3l-7 5q-2 1 -3 2l-2 2l-1 2q0 1 -1 3t-1 4q0 4 4 8q0 2 4 6q2 0 3 1t4 1
q2 2 11 2l4 -1q2 -1 5 -1q3 -3 8 -4q6 -3 8 -3q6 0 8 5l5 2q0 2 -2.5 4t-4.5 4q0 1 -3 4l-5 5q-3 0 -5.5 2.5t-6.5 4.5h-6l-5 1q-6 0 -10 -0.5t-8 -0.5l-13 -9q-5 -6 -7 -8.5t-6 -6.5q-1 -4 -3 -7t-2 -9q0 -4 2 -7.5t3 -10.5l10 -11q5 -2 7.5 -5t6.5 -3q4 -2 7.5 -4t6.5 -2
q4 -2 7 -2t6 -2q6 0 10 -4l4 -3q2 -2 2 -6q2 -2 2 -6v-9q0 -3 -2 -5q0 -6 -6 -7q-6 -5 -7 -6t-3 -1q-7 0 -8 -1t-5 -1q-3 0 -6.5 1t-5.5 1q-2 1 -4 3l-4 4l-2 1q-5 4 -10 4h-7q-2 0 -4 -2l-6 -2q2 -1 2 -2t2 -1q0 -3 1 -4l3 -3v-2q6 -6 9 -6q7 -7 14.5 -9t17.5 -2h12
q3 0 11 2q3 2 6.5 4t7.5 5l5 8q3 3 4 9zM78 350q-6 6 -7 17l-3 10q-1 3 -1 10t4 16l2 10t5 10l4 6l5 7q2 2 6.5 4.5t6.5 4.5q6 7 11 8t9 3q3 0 8 1.5t10 1.5q7 0 14.5 -1.5t13.5 -5.5q8 -2 12.5 -6.5t8.5 -9.5q-2 -2 -4 -2v-4h-13q-4 2 -7 5t-7 3h-36l-22 -12
q-4 -3 -7.5 -7.5t-4.5 -10.5q-2 -7 -3 -13t-1 -8q0 -9 4 -13q0 -5 0.5 -10t0.5 -8l5 -4q4 -1 6 -7l7 -4q3 -1 8 -1q3 -4 5.5 -5t6.5 -3h33q2 2 7 3t9 5v29h-14v2q-2 0 -3 1.5t-3 3.5h-2q-1 1 -1 3v4h36v-51q-2 -5 -3.5 -6t-5.5 -8h-12q-8 -2 -12 -2h-34q-4 0 -9 3.5t-11 7.5
q-2 0 -6.5 2.5t-6.5 6.5q-3 4 -5 6.5t-4 7.5zM240 438v-44h56v-15h-56v-47h67v-16h-84v140h84v-18h-67zM1171 438v-44h60v-15h-60v-47h68v-16h-84v140h84v-18h-68zM2375 759h-20q-3 0 -8 -5q-6 -5 -6 -10l-37 -47h-2q0 -2 -2 -2v2l-39 47q-1 7 -4 10q-5 5 -11 5h-18l58 -77
v-2q0 -2 2 -2l2 -2v-72h21v70q2 0 2 2l2 4v2zM641 456v-85q0 -7 2 -10t5 -5q0 -6 3.5 -9.5t5.5 -4.5q0 -2 4.5 -4t6.5 -4q6 -2 8 -2h16q1 0 5 2l9 4q2 1 3.5 2t3.5 2q3 1 8 14q4 3 4 15v85h14v-85q0 -12 -4 -23t-12 -16q-2 -5 -6.5 -9.5t-8.5 -4.5q-8 -1 -13.5 -1.5
t-10.5 -0.5t-11 0.5t-14 1.5q-2 0 -6.5 4.5l-9.5 9.5l-10 16q-1 6 -3.5 11t-2.5 12v85h14zM2253 625h-69v134h-21v-155h90v21zM1271 625h-67v134h-20v-155h87v21zM1452 336q1 2 2 3.5t2 3.5q2 2 3 6.5t1 6.5q0 9 -2 11t-3 4.5t-3 4.5q-1 1 -8 3q-4 0 -6 2t-6 2q-8 0 -14 6
q-9 0 -13 7q-2 0 -3.5 3.5t-3.5 7.5v22q0 1 2 7q0 8 7 9l6 7q2 1 3.5 2t3.5 2q5 0 7.5 1.5t8.5 1.5l6 -2l4 -1q4 0 5 -1t5 -3q2 0 4 -3.5t2 -5.5q4 0 6 -3l1 -2l-2 -2q-6 -2 -9 -2h-6q-2 2 -2 4h-23q-9 0 -9 -2q-5 -7 -5 -8q-4 0 -4 -8q0 -5 4 -6q0 -5 3 -6q0 -1 3 -4l4 -1
q4 -4 7.5 -4t7.5 -3q3 0 4 -1l2 -1q4 0 8 -5h4q2 0 4 -2h2q5 -4 8.5 -7t5.5 -4q1 -5 1.5 -10.5t0.5 -9.5v-10q0 -5 -4 -6q-3 -4 -5.5 -7.5t-6.5 -5.5q-2 -2 -6 -5.5t-6 -3.5q-6 -2 -10 -2h-9q-11 0 -18.5 1t-12.5 10q-2 0 -3.5 2.5t-5.5 4.5v4l-2 2l4 2h7q1 0 3 -1t4 -1
q4 -4 6.5 -5t4.5 -3h22q8 0 12 4zM1069 316l-59 140h6q6 0 8 -2t3 -2t3 -7l43 -103v-2l2 -6v6l2 2q5 14 13 27.5t12 24.5q4 16 10 28t12 23q0 7 1.5 7t1.5 2q6 2 7 2h11q-8 -18 -15.5 -35t-16.5 -34q-4 -9 -7 -18.5t-6 -18.5l-16 -34h-15zM532 438v-49h60v-12h-60v-61h-16
v140h85v-18h-69zM1959 438v-49h54v-12h-54v-61h-16v140h81v-18h-65zM879 456v-124h63v-16h-80v140h17zM371 316v122h-46v18h105v-18h-47v-122h-12zM784 456v-124h64v-16h-80v140h16zM270 728q2 -1 3 -4t3 -5q4 -4 4 -9v-4q0 -5 -4 -9q-2 -2 -3 -4.5t-3 -2.5l-4 -4l-4 -4h-46
v53h36q4 0 10 -2q1 0 4 -3zM1325 389q4 0 6 3q4 4 9 4l2 5q0 2 5 6q0 1 1 4t1 7q0 2 -1 3.5t-1 4.5q-7 3 -7 8q-5 0 -9 4h-44v-49h38zM2101 392q4 4 7 4q7 7 7 11q2 4 2 11q0 4 -2 8q0 2 -7 8q-3 0 -7 4h-44v-49h36q3 0 8 3zM1525 456v-140h-18v140h18zM518 701l-4 -7
q-2 0 -3 -2t-3 -2q-2 -2 -10 -2h-33v47h33q4 0 10 -2q2 0 6 -5q1 -2 2 -3.5t2 -3.5q3 -2 3 -9q0 -5 -3 -11zM684 129l-27 69q0 2 -1 3l-1 2q0 4 -3 6v-6l-1 -2q-1 -1 -1 -3l-27 -69h61zM1093 727v-4l27 -64h-59l30 64v5zM1755 82q6 0 6 -6q2 -2 2 -5v-4q0 -9 -2 -11
q0 -5 -6 -9q-3 0 -6 -4h-17q-4 4 -11 4q0 2 -5 9q-2 2 -2 11v4q0 3 2 5l3 4l2 2q7 4 11 4q1 3 4 3h10q3 0 3 -3q3 0 6 -4z" />
    <glyph glyph-name="four" unicode="4" 
d="M2478 1093v-587h-2404v587h910q0 30 5.5 58t20.5 53q12 29 26 52.5t37 41.5q39 42 91 62q28 12 55.5 17t56.5 5q33 0 61.5 -6.5t53.5 -15.5q27 -14 50.5 -29.5t45.5 -36.5q35 -38 60 -94q11 -27 15.5 -54t4.5 -53h911zM1030 1194q-20 -49 -20 -101q0 -58 20 -106
q10 -22 24.5 -43.5t29.5 -42.5q20 -17 41.5 -32t45.5 -25q46 -23 105 -23q31 0 56.5 4.5t47.5 16.5q48 19 83 57q22 20 35.5 41t26.5 43q20 54 20 110q0 20 -3.5 43.5t-11.5 47.5q-14 40 -43 72q-14 20 -29.5 33.5t-34.5 25.5l-76 36q-16 3 -33 6t-38 3q-29 0 -55.5 -5.5
t-51.5 -19.5q-50 -19 -85 -57q-17 -19 -30.5 -39.5t-23.5 -44.5zM1142 936l314 317q62 -80 62 -160q0 -24 -3.5 -45.5t-11.5 -41.5q-8 -19 -17.5 -37t-23.5 -33h-320zM1095 928q-14 17 -25 36.5t-19 39.5q-9 18 -12.5 40.5t-3.5 48.5q0 18 3.5 39t12.5 43q7 35 40 68h318z
M1135 207q2 -4 4.5 -11t5.5 -14q2 -10 2 -14v-32q0 -5 -2 -11l-6 -15l-4 -14q-6 -4 -10.5 -10t-8.5 -10q-6 -5 -11 -10.5t-10 -9.5q-9 -5 -15.5 -7t-12.5 -4q-10 -2 -15 -2h-17q-9 0 -19 2t-23 4q-12 6 -18.5 13t-17.5 14q-15 14 -21 35q-4 10 -6 19.5t-2 23.5v14q0 4 2 14
q4 17 12 25q4 8 7.5 13t7.5 11q9 5 13.5 9.5t10.5 9.5l12 4l17 6q5 0 11.5 1t13.5 1q10 0 17 -1t15 -1q6 -4 12.5 -6t15.5 -4q5 -5 10 -9.5t11 -9.5q4 -6 8.5 -11t10.5 -13zM2195 207q4 -4 6.5 -11t4.5 -14q4 -7 4 -14v-32q0 -7 -4 -11q-2 -7 -4.5 -15t-6.5 -14l-16 -20
l-12 -10l-14 -10q-5 -5 -12 -7t-13 -4q-8 -2 -14 -2h-17q-19 0 -43 6q-8 6 -16 13t-17 14q-8 6 -14 14t-8 21q-6 10 -7.5 19.5t-1.5 23.5q0 8 1 14t1 14l6 14t7 11q2 8 6 13t10 11q3 5 10.5 9.5t12.5 9.5q4 2 11 4t13 6q11 0 17 1t12 1q9 0 17 -1t14 -1q6 -4 13 -6t12 -4
l26 -19q2 -6 8 -11t8 -13zM2433 260l1 1q1 1 6 1h38v-219h-38v160l-5 -9v-8q0 -2 -2 -4q-6 -16 -13 -34.5t-16 -31.5q-6 -20 -12 -36.5t-14 -36.5h-37l-55 139q-6 3 -6 12q0 4 -1 4l-2 2v-157h-42v219h40q5 0 6.5 -1t4.5 -1q2 -2 3 -2t4 -2l7 -4q0 -2 2 -3.5t2 -3.5
q4 -18 11 -32.5t16 -34.5l12 -33q3 -8 6 -15l6 -14v-14q3 0 4 -4q0 4 1 4v14l11 13l44 116q0 1 2 3l2 4q0 1 3 3l3 1q2 2 4 2t4 2zM1329 262h38v-219h-36l-100 146l-4 5v2q-3 4 -3 5q-4 1 -4 4q0 4 -7 4v-166h-37v219h33q4 0 9.5 -1t5.5 -3q3 -2 5 -2t4 -2l22 -33
q6 -8 11 -16.5t10 -19.5q13 -13 24 -29t25 -29q0 -2 1 -4.5t1 -6.5l1 -3q0 -2 1 -3v152zM672 262l94 -219h-25q-9 0 -16 4q-2 2 -4 6.5t-6 8.5l-14 27h-100l-9 -27q0 -6 -4 -6q-2 -5 -4 -5l-3 -4q-2 0 -4.5 -1t-6.5 -1q0 -2 -2 -2h-27l96 219h35zM260 262h139v-39h-100v-49
h82v-41h-82v-51h100v-39h-139v219zM839 659q1 7 2 11t1 10q0 12 -3 21q0 7 -4.5 10.5t-6.5 9.5q-2 3 -4.5 6.5t-6.5 7.5l-7 6q-2 3 -9 9q-4 2 -8 4.5t-11 4.5q-5 0 -9.5 0.5t-10.5 0.5q-3 0 -8.5 -0.5t-12.5 -0.5q-6 -2 -10 -4.5t-8 -4.5q-4 -6 -7.5 -8.5t-7.5 -6.5
q-13 -7 -14 -14q-4 -6 -5 -9.5l-3 -10.5q-1 -5 -1.5 -10t-0.5 -11t2 -14.5t4 -15.5t6.5 -12.5t11.5 -12.5q10 -15 25 -15q10 -6 29 -6h20q15 5 19 8q11 4 16 13q3 4 6 7.5t5 8.5q2 4 6.5 9t4.5 9zM1966 659v42l-7 20q-5 7 -15 14q-1 4 -6 6.5t-10 8.5l-4 2t-5 2l-7 5
q-7 0 -12 0.5t-10 0.5q-6 0 -11 -0.5t-9 -0.5l-22 -9q-3 -6 -6 -8.5t-7 -6.5q-3 -4 -6.5 -7t-5.5 -7q-2 -6 -4.5 -9.5t-2.5 -10.5q-6 -9 -6 -21q0 -6 3 -14.5t6 -15.5q4 -15 16 -25q7 -15 26 -15q10 -6 29 -6h22q3 2 8 4t8 4l10 6t6 7q11 8 15 16zM74 262h158v-24
q0 -4 -1 -6q0 -3 -2 -5l-4 -4l-105 -143h1l2 2h108v-39h-164v13q0 11 2 13q0 2 5 7v4l2 4q2 2 4 3.5t2 6.5l94 129h-102v39zM1839 203q-4 -4 -7 -10.5t-7 -14.5q-2 -4 -4 -10t-2 -14q0 -7 2 -15l4 -12q2 -7 6 -14.5t8 -10.5q4 -4 9.5 -8.5t14.5 -7.5q12 -4 27 -4q5 0 10 1
t12 1q3 2 8 5t8 7q3 0 9 2h13q3 0 9 -2q2 -1 3.5 -3t3.5 -4l6 -7q-3 -4 -6 -7.5t-7 -7.5q-7 -5 -11.5 -8t-12.5 -6q-7 -4 -11.5 -5t-10.5 -3t-11 -2h-12q-12 0 -23.5 2t-21.5 4q-10 5 -18.5 12t-16.5 15q-16 13 -22 35q-4 10 -7 19.5t-3 23.5q0 10 1 14l4 14q1 7 3 14t6 11
q6 8 8.5 13t9.5 11q14 9 25 19q4 2 9.5 4t18.5 6q5 0 12 1t15 1h13q4 0 10 -2t10.5 -3t11.5 -3q8 -4 12.5 -6.5t11.5 -7.5l13 -17l-6 -8q-2 -1 -5 -4l-2 -4h-15q-7 0 -16 4l-16 10q-10 2 -12 2h-10q-17 0 -27 -7q-17 -1 -24 -13zM1690 151l7 -10.5t3 -7.5q6 -8 6 -20
q0 -15 -8 -29l-8 -12l-9 -10q-7 -6 -11.5 -9.5t-12.5 -5.5q-5 -2 -14 -3t-15 -1q-8 0 -14.5 1l-19.5 3q-5 2 -10 6.5t-11 13.5q-4 1 -6 5l-4 8q-7 2 -7 9l7 5q2 2 4 2h4l2 2h10q4 0 4 -2q7 0 9 -2q7 -5 10.5 -6.5t5.5 -3.5q2 0 6 -1t10 -1h5q2 0 6 2q5 1 8 2t7 3q6 6 7 9
q2 4 4 7.5t2 7.5q0 7 -6 10q-5 6 -7 6q-2 4 -7.5 5t-7.5 2q-6 0 -14 7q-5 0 -9 1t-9 7q-11 3 -14.5 6t-7.5 7q-12 4 -12 14q-6 10 -6 25q0 18 6 26l6 11l8 10q4 2 10 4t13 6q6 0 10.5 1t13.5 1q4 0 8.5 -1t11.5 -1l15 -6q3 -4 6.5 -6.5t7.5 -7.5q4 -2 7.5 -5.5t3.5 -7.5
l-7 -4q-4 -2 -7 -4.5t-3 -3.5h-18l-5 1l-7 5q-2 0 -4 1t-4 1h-17q-2 0 -3 -1t-5 -3q-2 -3 -6 -6q-1 -3 -1 -10q0 -5 1 -5q2 -2 3 -5.5t3 -7.5h6q1 0 5 -2q5 -1 9.5 -3t10.5 -4l9 -2q5 -4 9 -5t9 -5q5 -2 10 -5t8 -8zM1579 336q-12 7 -16 20q-7 17 -7 31v16l11 20l12 13
q6 7 12 9q3 7 9.5 8t9.5 3q4 0 8 1.5t10 1.5q4 0 10.5 -1.5t10.5 -1.5q5 -2 8.5 -3t7.5 -8q2 -2 5.5 -4.5t6.5 -4.5l13 -13l8 -20q0 -4 1 -9t1 -7q0 -6 -1 -14t-5 -17q-5 -13 -17 -20q-5 -4 -9.5 -7.5t-11.5 -10.5q-5 -1 -12 -1.5t-16 -0.5h-15q-4 0 -10 2q-18 7 -24 18z
M2284 336q-7 -4 -13.5 -7.5t-11.5 -10.5q-8 -2 -12 -2h-30q-5 0 -13 2q-7 4 -12.5 8.5t-10.5 9.5q-6 6 -13 20q-2 9 -4.5 17t-2.5 14q0 2 1 7t1 9q3 5 4 10t4 10q2 3 5 6t5 7q6 4 18 9q3 7 8 8t7 3q6 0 9 1.5t10 1.5q2 0 8.5 -1.5t11.5 -1.5q4 -2 7.5 -3t6.5 -8l17 -9
q2 -4 4 -7t5 -6q2 -5 4 -9.5t3 -10.5q2 -4 3 -9t1 -7q0 -6 -1 -14t-5 -17q0 -6 -5 -11zM2166 127q5 12 5 27q0 16 -5 24q-3 9 -8 15.5t-8 9.5q-10 10 -24 13q-4 5 -12 6t-17 1q-12 0 -25 -7q-8 -1 -13 -4t-11 -9q-4 -3 -7.5 -9.5t-8.5 -15.5q0 -4 -1 -10t-1 -14q0 -9 1 -15
t1 -12q4 -8 8 -14t8 -11q6 -4 11 -8.5t13 -7.5q7 -2 14 -3t11 -1q9 0 17 1t12 3q8 3 14 7.5t10 8.5q11 11 16 25zM1104 127q4 11 4 27q0 13 -4 24q-2 9 -6.5 15.5t-13.5 9.5q-2 6 -7.5 9t-11.5 4q-11 7 -30 7q-14 0 -25 -7q-11 -1 -23 -13q-6 -3 -9 -9.5t-5 -15.5
q-5 -5 -5 -10v-29q0 -5 5 -12q2 -7 5 -14.5t9 -10.5q6 -4 11 -8.5t12 -7.5q11 -4 25 -4q19 0 30 4q13 7 19 16q9 3 13.5 10.5t6.5 14.5zM774 262h139v-39h-100v-55h82v-39h-82v-86h-39v219zM570 223h-58v-180h-43v180h-62v39h163v-39zM1188 864q-19 7 -37 19t-35 26h322
q-18 -14 -36 -26t-36 -19q-24 -6 -45.5 -11t-44.5 -5q-25 0 -45.5 5t-42.5 11zM1389 262h165v-39h-65v-180h-39v180h-61v39zM1366 1315q18 -8 36 -20.5t36 -22.5h-325q38 30 75 43q37 18 88 18q48 0 90 -18zM559 604l-47 68q4 0 11 4q8 5 9 10q9 5 9 11v26q0 1 -2 5
q-3 10 -11 15q-5 9 -14 9q-2 5 -6.5 6t-9.5 1h-57v-155h24v64h23l40 -56q1 -4 8 -6q2 -2 3 -2h20zM1169 604l-67 155h-22l-65 -155h11q7 0 9 2q0 2 7 6l11 27h76l13 -27q1 -4 5 -6q2 -2 8 -2h14zM1930 721q3 -2 8 -7.5t6 -12.5q4 -7 4 -21q0 -12 -4 -23q-1 -5 -6 -9.5
t-8 -6.5q-5 -4 -9 -6.5t-8 -7.5q-9 -4 -23 -4q-6 0 -12 1t-10 3q-5 5 -10.5 7.5t-9.5 6.5q-3 2 -6 6.5t-3 9.5q-4 7 -5 12t-1 11q0 10 6 21q0 7 3 12.5t6 7.5q4 4 9.5 7t10.5 5q9 4 22 4q5 0 11.5 -1t11.5 -3zM801 721q7 -2 9.5 -7.5t4.5 -12.5q4 -7 4 -21q0 -11 -4 -23
q-2 -5 -4.5 -9.5t-9.5 -6.5q-1 -4 -6 -7l-11 -7q-9 -4 -22 -4q-11 0 -23 4q-4 5 -9 7.5t-9 6.5q-2 2 -5.5 6.5t-5.5 9.5q-4 12 -4 23q0 12 4 21q2 7 5.5 12.5t5.5 7.5q4 4 9 7t9 5q5 2 12.5 3t10.5 1q13 0 22 -4q8 -2 11.5 -5t5.5 -7zM2126 759h-22v-120q-1 2 -2 5t-3 4
l-75 104l-3 7h-24v-155h22v121l2 -2l87 -119h18v155zM2218 332h31l6 3q3 3 4 5q6 0 14 5q2 5 3 7t4 4q0 3 3 8t3 10v34q-3 6 -7 10.5t-6 7.5q-10 4 -18 12h-43q-6 -4 -9.5 -7t-9.5 -5q-5 -3 -7.5 -7.5t-4.5 -10.5q-1 -4 -1.5 -7t-0.5 -7v-20q0 -13 5 -18q2 -2 4.5 -4t4.5 -7
l7 -3q2 -2 4 -2q4 -4 7 -5t7 -3zM296 690q5 12 5 20q0 9 -5 18q0 2 -5 7l-6 6q-2 3 -5 7t-10 4q-3 5 -8.5 6t-9.5 1h-52v-155h16v59h36q4 0 9.5 0.5t8.5 2.5q10 4 15 10q4 2 7.5 6t3.5 8zM1579 408q-6 -14 -6 -21v-8q0 -4 3 -5q0 -10 5 -18q0 -2 2 -4t4 -7l5 -3q2 -2 11 -2
q2 -4 5.5 -5t5.5 -3h27q6 2 9.5 3t6.5 5l6 2l4 3q2 5 4.5 7t2.5 4q3 3 4 8t3 10q0 2 1 5.5t1 7.5q0 2 -1 8t-5 13q0 6 -4 10.5t-6 7.5q-3 1 -8 6l-10 6h-42q-4 -4 -10 -7l-10 -5l-5 -8q-3 -5 -3 -10zM997 759h-18v-120l-2 4q-2 6 -2 5l-74 104q-5 0 -6 7h-25v-155h21v124h2
l2 -1v-4l86 -119h16v155zM2115 381q-5 -1 -8.5 -2t-5.5 -2l45 -61h-12l-6 2q-4 0 -4 9l-39 50h-28v-61h-15v140h57q3 0 9 -2q2 -2 6.5 -5.5t5.5 -5.5q4 -2 5 -5.5t7 -7.5v-27q-4 -4 -5 -8t-3 -6zM1342 381q-3 -3 -11 -4l47 -61h-15q-3 0 -3 2q-6 0 -6 9l-39 50h-28v-61h-13
v140h56q2 0 6 -2q10 -1 18 -11q0 -2 3 -5.5t3 -7.5q2 -2 2 -6v-14q0 -1 -2 -7q0 -10 -4 -14l-5 -4q-3 -3 -9 -4zM412 759h-98v-155h98v21h-74v47h58v18h-58v45h74v24zM1721 759h-93v-155h93v21h-69v47h58v18h-58v45h69v24zM2460 454q6 2 5 2h13v-140h-12v114l-2 -2v-2
q-4 -8 -6.5 -17.5t-8.5 -14.5q-5 -7 -7 -12.5t-7 -14.5q-2 -9 -3 -15.5t-5 -9.5q-3 -8 -6.5 -12.5t-5.5 -13.5h-15q-10 14 -15 27t-10 28q-4 12 -12 26.5t-12 28.5v2h-4v-112h-14v140h14q4 0 6 -2l2 -2v-7l49 -105q0 -4 2 -4l1 2v4q0 2 8 6l41 97q2 7 3 7t1 2zM1480 759h-22
v-104q0 -4 -2 -8q-1 -7 -10 -12q0 -2 -4 -3.5t-6 -6.5l-9 -2h-9q-7 0 -13 2q-5 5 -8.5 6.5t-5.5 3.5l-11 12q0 3 -1 7.5t-1 11.5v93h-20v-93q0 -7 1 -11.5t1 -7.5q0 -8 6 -14q3 -8 10 -12q2 -4 4.5 -6.5t8.5 -4.5q2 -2 6.5 -3t7.5 -3q4 0 7 -1.5t8 -1.5t8.5 1.5t11.5 1.5
q2 2 5 3t7 3q3 2 6 4.5t6 6.5q3 2 5 5.5t7 6.5q0 4 3 7t3 7v112zM664 632q2 5 3 8t1 8q0 12 -5.5 20t-12.5 14q-2 0 -3.5 2t-5.5 4l-4 2h-4q-1 0 -1 4q-8 0 -9 1q-8 2 -9.5 3t-5.5 3q-6 5 -9 5q-3 4 -3 6v15q0 1 1.5 2.5t1.5 3.5q2 0 4.5 1t4.5 1q6 2 5 2h10q2 -2 4 -2
q7 0 8 -4q1 -3 4 -3h2q9 0 14 5l4 2q0 2 -2 4l-5 4q-2 1 -4.5 4t-6.5 5q-2 0 -4 2.5t-5 4.5q-5 0 -7 0.5t-4 0.5q-7 0 -12 -0.5t-8 -0.5q-5 -2 -7 -4.5t-6 -4.5q-2 -6 -5.5 -8.5t-8.5 -6.5q0 -4 -2 -7t-2 -9t4 -18l12 -11q2 -2 6 -5t7 -3q5 -2 8 -4t7 -2q1 -2 6 -2t7 -2
l6 -2q2 0 4 -2t2 -3t2 -6q2 -2 2 -7v-9q0 -2 -2 -4t-2 -4t-2 -3q-2 -5 -6 -6l-4 -1q-4 0 -8 -1t-5 -1q-4 0 -7 1t-6 1q-2 0 -3.5 1t-1.5 6l-4 1q-4 4 -11 4h-7l-4 -2l-5 -2q0 -3 3 -3q0 -3 2 -5q0 -4 4 -4v-6h5q7 -7 16 -9t19 -2h10q5 0 11 2q4 2 8.5 4t6.5 5q13 5 14 17z
M1741 316h-18v140h20q3 0 4 -4l74 -104q2 0 2 -5l2 -1v114h14v-140h-12l-82 114v4h-4v-118zM1596 632q9 7 9 16q0 12 -5.5 20t-12.5 14q-6 4 -6 6h-4l-4 2h-3q-4 0 -5 4h-4q-2 0 -5 1q-2 2 -4 3t-7 3l-7 5q-2 1 -3 2l-2 2l-1 2q0 1 -1 3t-1 4q0 4 4 8q0 2 4 6q2 0 3 1t4 1
q2 2 11 2l4 -1q2 -1 5 -1q3 -3 8 -4q6 -3 8 -3q6 0 8 5l5 2q0 2 -2.5 4t-4.5 4q0 1 -3 4l-5 5q-3 0 -5.5 2.5t-6.5 4.5h-6l-5 1q-6 0 -10 -0.5t-8 -0.5l-13 -9q-5 -6 -7 -8.5t-6 -6.5q-1 -4 -3 -7t-2 -9q0 -4 2 -7.5t3 -10.5l10 -11q5 -2 7.5 -5t6.5 -3q4 -2 7.5 -4t6.5 -2
q4 -2 7 -2t6 -2q6 0 10 -4l4 -3q2 -2 2 -6q2 -2 2 -6v-9q0 -3 -2 -5q0 -6 -6 -7q-6 -5 -7 -6t-3 -1q-7 0 -8 -1t-5 -1q-3 0 -6.5 1t-5.5 1q-2 1 -4 3l-4 4l-2 1q-5 4 -10 4h-7q-2 0 -4 -2l-6 -2q2 -1 2 -2t2 -1q0 -3 1 -4l3 -3v-2q6 -6 9 -6q7 -7 14.5 -9t17.5 -2h12
q3 0 11 2q3 2 6.5 4t7.5 5l5 8q3 3 4 9zM78 350q-6 6 -7 17l-3 10q-1 3 -1 10t4 16l2 10t5 10l4 6l5 7q2 2 6.5 4.5t6.5 4.5q6 7 11 8t9 3q3 0 8 1.5t10 1.5q7 0 14.5 -1.5t13.5 -5.5q8 -2 12.5 -6.5t8.5 -9.5q-2 -2 -4 -2v-4h-13q-4 2 -7 5t-7 3h-36l-22 -12
q-4 -3 -7.5 -7.5t-4.5 -10.5q-2 -7 -3 -13t-1 -8q0 -9 4 -13q0 -5 0.5 -10t0.5 -8l5 -4q4 -1 6 -7l7 -4q3 -1 8 -1q3 -4 5.5 -5t6.5 -3h33q2 2 7 3t9 5v29h-14v2q-2 0 -3 1.5t-3 3.5h-2q-1 1 -1 3v4h36v-51q-2 -5 -3.5 -6t-5.5 -8h-12q-8 -2 -12 -2h-34q-4 0 -9 3.5t-11 7.5
q-2 0 -6.5 2.5t-6.5 6.5q-3 4 -5 6.5t-4 7.5zM240 438v-44h56v-15h-56v-47h67v-16h-84v140h84v-18h-67zM1171 438v-44h60v-15h-60v-47h68v-16h-84v140h84v-18h-68zM2375 759h-20q-3 0 -8 -5q-6 -5 -6 -10l-37 -47h-2q0 -2 -2 -2v2l-39 47q-1 7 -4 10q-5 5 -11 5h-18l58 -77
v-2q0 -2 2 -2l2 -2v-72h21v70q2 0 2 2l2 4v2zM641 456v-85q0 -7 2 -10t5 -5q0 -6 3.5 -9.5t5.5 -4.5q0 -2 4.5 -4t6.5 -4q6 -2 8 -2h16q1 0 5 2l9 4q2 1 3.5 2t3.5 2q3 1 8 14q4 3 4 15v85h14v-85q0 -12 -4 -23t-12 -16q-2 -5 -6.5 -9.5t-8.5 -4.5q-8 -1 -13.5 -1.5
t-10.5 -0.5t-11 0.5t-14 1.5q-2 0 -6.5 4.5l-9.5 9.5l-10 16q-1 6 -3.5 11t-2.5 12v85h14zM2253 625h-69v134h-21v-155h90v21zM1271 625h-67v134h-20v-155h87v21zM1452 336q1 2 2 3.5t2 3.5q2 2 3 6.5t1 6.5q0 9 -2 11t-3 4.5t-3 4.5q-1 1 -8 3q-4 0 -6 2t-6 2q-8 0 -14 6
q-9 0 -13 7q-2 0 -3.5 3.5t-3.5 7.5v22q0 1 2 7q0 8 7 9l6 7q2 1 3.5 2t3.5 2q5 0 7.5 1.5t8.5 1.5l6 -2l4 -1q4 0 5 -1t5 -3q2 0 4 -3.5t2 -5.5q4 0 6 -3l1 -2l-2 -2q-6 -2 -9 -2h-6q-2 2 -2 4h-23q-9 0 -9 -2q-5 -7 -5 -8q-4 0 -4 -8q0 -5 4 -6q0 -5 3 -6q0 -1 3 -4l4 -1
q4 -4 7.5 -4t7.5 -3q3 0 4 -1l2 -1q4 0 8 -5h4q2 0 4 -2h2q5 -4 8.5 -7t5.5 -4q1 -5 1.5 -10.5t0.5 -9.5v-10q0 -5 -4 -6q-3 -4 -5.5 -7.5t-6.5 -5.5q-2 -2 -6 -5.5t-6 -3.5q-6 -2 -10 -2h-9q-11 0 -18.5 1t-12.5 10q-2 0 -3.5 2.5t-5.5 4.5v4l-2 2l4 2h7q1 0 3 -1t4 -1
q4 -4 6.5 -5t4.5 -3h22q8 0 12 4zM1069 316l-59 140h6q6 0 8 -2t3 -2t3 -7l43 -103v-2l2 -6v6l2 2q5 14 13 27.5t12 24.5q4 16 10 28t12 23q0 7 1.5 7t1.5 2q6 2 7 2h11q-8 -18 -15.5 -35t-16.5 -34q-4 -9 -7 -18.5t-6 -18.5l-16 -34h-15zM532 438v-49h60v-12h-60v-61h-16
v140h85v-18h-69zM1959 438v-49h54v-12h-54v-61h-16v140h81v-18h-65zM879 456v-124h63v-16h-80v140h17zM371 316v122h-46v18h105v-18h-47v-122h-12zM784 456v-124h64v-16h-80v140h16zM270 728q2 -1 3 -4t3 -5q4 -4 4 -9v-4q0 -5 -4 -9q-2 -2 -3 -4.5t-3 -2.5l-4 -4l-4 -4h-46
v53h36q4 0 10 -2q1 0 4 -3zM1325 389q4 0 6 3q4 4 9 4l2 5q0 2 5 6q0 1 1 4t1 7q0 2 -1 3.5t-1 4.5q-7 3 -7 8q-5 0 -9 4h-44v-49h38zM2101 392q4 4 7 4q7 7 7 11q2 4 2 11q0 4 -2 8q0 2 -7 8q-3 0 -7 4h-44v-49h36q3 0 8 3zM1525 456v-140h-18v140h18zM518 701l-4 -7
q-2 0 -3 -2t-3 -2q-2 -2 -10 -2h-33v47h33q4 0 10 -2q2 0 6 -5q1 -2 2 -3.5t2 -3.5q3 -2 3 -9q0 -5 -3 -11zM684 129l-27 69q0 2 -1 3l-1 2q0 4 -3 6v-6l-1 -2q-1 -1 -1 -3l-27 -69h61zM1093 727v-4l27 -64h-59l30 64v5zM1755 82q6 0 6 -6q2 -2 2 -5v-4q0 -9 -2 -11
q0 -5 -6 -9q-3 0 -6 -4h-17q-4 4 -11 4q0 2 -5 9q-2 2 -2 11v4q0 3 2 5l3 4l2 2q7 4 11 4q1 3 4 3h10q3 0 3 -3q3 0 6 -4z" />
    <glyph glyph-name="five" unicode="5" 
d="M2478 1093v-587h-2404v587h910q0 30 5.5 58t20.5 53q12 29 26 52.5t37 41.5q39 42 91 62q28 12 55.5 17t56.5 5q33 0 61.5 -6.5t53.5 -15.5q27 -14 50.5 -29.5t45.5 -36.5q35 -38 60 -94q11 -27 15.5 -54t4.5 -53h911zM1030 1194q-20 -49 -20 -101q0 -58 20 -106
q10 -22 24.5 -43.5t29.5 -42.5q20 -17 41.5 -32t45.5 -25q46 -23 105 -23q31 0 56.5 4.5t47.5 16.5q48 19 83 57q22 20 35.5 41t26.5 43q20 54 20 110q0 20 -3.5 43.5t-11.5 47.5q-14 40 -43 72q-14 20 -29.5 33.5t-34.5 25.5l-76 36q-16 3 -33 6t-38 3q-29 0 -55.5 -5.5
t-51.5 -19.5q-50 -19 -85 -57q-17 -19 -30.5 -39.5t-23.5 -44.5zM1142 936l314 317q62 -80 62 -160q0 -24 -3.5 -45.5t-11.5 -41.5q-8 -19 -17.5 -37t-23.5 -33h-320zM1095 928q-14 17 -25 36.5t-19 39.5q-9 18 -12.5 40.5t-3.5 48.5q0 18 3.5 39t12.5 43q7 35 40 68h318z
M1135 207q2 -4 4.5 -11t5.5 -14q2 -10 2 -14v-32q0 -5 -2 -11l-6 -15l-4 -14q-6 -4 -10.5 -10t-8.5 -10q-6 -5 -11 -10.5t-10 -9.5q-9 -5 -15.5 -7t-12.5 -4q-10 -2 -15 -2h-17q-9 0 -19 2t-23 4q-12 6 -18.5 13t-17.5 14q-15 14 -21 35q-4 10 -6 19.5t-2 23.5v14q0 4 2 14
q4 17 12 25q4 8 7.5 13t7.5 11q9 5 13.5 9.5t10.5 9.5l12 4l17 6q5 0 11.5 1t13.5 1q10 0 17 -1t15 -1q6 -4 12.5 -6t15.5 -4q5 -5 10 -9.5t11 -9.5q4 -6 8.5 -11t10.5 -13zM2195 207q4 -4 6.5 -11t4.5 -14q4 -7 4 -14v-32q0 -7 -4 -11q-2 -7 -4.5 -15t-6.5 -14l-16 -20
l-12 -10l-14 -10q-5 -5 -12 -7t-13 -4q-8 -2 -14 -2h-17q-19 0 -43 6q-8 6 -16 13t-17 14q-8 6 -14 14t-8 21q-6 10 -7.5 19.5t-1.5 23.5q0 8 1 14t1 14l6 14t7 11q2 8 6 13t10 11q3 5 10.5 9.5t12.5 9.5q4 2 11 4t13 6q11 0 17 1t12 1q9 0 17 -1t14 -1q6 -4 13 -6t12 -4
l26 -19q2 -6 8 -11t8 -13zM2433 260l1 1q1 1 6 1h38v-219h-38v160l-5 -9v-8q0 -2 -2 -4q-6 -16 -13 -34.5t-16 -31.5q-6 -20 -12 -36.5t-14 -36.5h-37l-55 139q-6 3 -6 12q0 4 -1 4l-2 2v-157h-42v219h40q5 0 6.5 -1t4.5 -1q2 -2 3 -2t4 -2l7 -4q0 -2 2 -3.5t2 -3.5
q4 -18 11 -32.5t16 -34.5l12 -33q3 -8 6 -15l6 -14v-14q3 0 4 -4q0 4 1 4v14l11 13l44 116q0 1 2 3l2 4q0 1 3 3l3 1q2 2 4 2t4 2zM1329 262h38v-219h-36l-100 146l-4 5v2q-3 4 -3 5q-4 1 -4 4q0 4 -7 4v-166h-37v219h33q4 0 9.5 -1t5.5 -3q3 -2 5 -2t4 -2l22 -33
q6 -8 11 -16.5t10 -19.5q13 -13 24 -29t25 -29q0 -2 1 -4.5t1 -6.5l1 -3q0 -2 1 -3v152zM672 262l94 -219h-25q-9 0 -16 4q-2 2 -4 6.5t-6 8.5l-14 27h-100l-9 -27q0 -6 -4 -6q-2 -5 -4 -5l-3 -4q-2 0 -4.5 -1t-6.5 -1q0 -2 -2 -2h-27l96 219h35zM260 262h139v-39h-100v-49
h82v-41h-82v-51h100v-39h-139v219zM839 659q1 7 2 11t1 10q0 12 -3 21q0 7 -4.5 10.5t-6.5 9.5q-2 3 -4.5 6.5t-6.5 7.5l-7 6q-2 3 -9 9q-4 2 -8 4.5t-11 4.5q-5 0 -9.5 0.5t-10.5 0.5q-3 0 -8.5 -0.5t-12.5 -0.5q-6 -2 -10 -4.5t-8 -4.5q-4 -6 -7.5 -8.5t-7.5 -6.5
q-13 -7 -14 -14q-4 -6 -5 -9.5l-3 -10.5q-1 -5 -1.5 -10t-0.5 -11t2 -14.5t4 -15.5t6.5 -12.5t11.5 -12.5q10 -15 25 -15q10 -6 29 -6h20q15 5 19 8q11 4 16 13q3 4 6 7.5t5 8.5q2 4 6.5 9t4.5 9zM1966 659v42l-7 20q-5 7 -15 14q-1 4 -6 6.5t-10 8.5l-4 2t-5 2l-7 5
q-7 0 -12 0.5t-10 0.5q-6 0 -11 -0.5t-9 -0.5l-22 -9q-3 -6 -6 -8.5t-7 -6.5q-3 -4 -6.5 -7t-5.5 -7q-2 -6 -4.5 -9.5t-2.5 -10.5q-6 -9 -6 -21q0 -6 3 -14.5t6 -15.5q4 -15 16 -25q7 -15 26 -15q10 -6 29 -6h22q3 2 8 4t8 4l10 6t6 7q11 8 15 16zM74 262h158v-24
q0 -4 -1 -6q0 -3 -2 -5l-4 -4l-105 -143h1l2 2h108v-39h-164v13q0 11 2 13q0 2 5 7v4l2 4q2 2 4 3.5t2 6.5l94 129h-102v39zM1839 203q-4 -4 -7 -10.5t-7 -14.5q-2 -4 -4 -10t-2 -14q0 -7 2 -15l4 -12q2 -7 6 -14.5t8 -10.5q4 -4 9.5 -8.5t14.5 -7.5q12 -4 27 -4q5 0 10 1
t12 1q3 2 8 5t8 7q3 0 9 2h13q3 0 9 -2q2 -1 3.5 -3t3.5 -4l6 -7q-3 -4 -6 -7.5t-7 -7.5q-7 -5 -11.5 -8t-12.5 -6q-7 -4 -11.5 -5t-10.5 -3t-11 -2h-12q-12 0 -23.5 2t-21.5 4q-10 5 -18.5 12t-16.5 15q-16 13 -22 35q-4 10 -7 19.5t-3 23.5q0 10 1 14l4 14q1 7 3 14t6 11
q6 8 8.5 13t9.5 11q14 9 25 19q4 2 9.5 4t18.5 6q5 0 12 1t15 1h13q4 0 10 -2t10.5 -3t11.5 -3q8 -4 12.5 -6.5t11.5 -7.5l13 -17l-6 -8q-2 -1 -5 -4l-2 -4h-15q-7 0 -16 4l-16 10q-10 2 -12 2h-10q-17 0 -27 -7q-17 -1 -24 -13zM1690 151l7 -10.5t3 -7.5q6 -8 6 -20
q0 -15 -8 -29l-8 -12l-9 -10q-7 -6 -11.5 -9.5t-12.5 -5.5q-5 -2 -14 -3t-15 -1q-8 0 -14.5 1l-19.5 3q-5 2 -10 6.5t-11 13.5q-4 1 -6 5l-4 8q-7 2 -7 9l7 5q2 2 4 2h4l2 2h10q4 0 4 -2q7 0 9 -2q7 -5 10.5 -6.5t5.5 -3.5q2 0 6 -1t10 -1h5q2 0 6 2q5 1 8 2t7 3q6 6 7 9
q2 4 4 7.5t2 7.5q0 7 -6 10q-5 6 -7 6q-2 4 -7.5 5t-7.5 2q-6 0 -14 7q-5 0 -9 1t-9 7q-11 3 -14.5 6t-7.5 7q-12 4 -12 14q-6 10 -6 25q0 18 6 26l6 11l8 10q4 2 10 4t13 6q6 0 10.5 1t13.5 1q4 0 8.5 -1t11.5 -1l15 -6q3 -4 6.5 -6.5t7.5 -7.5q4 -2 7.5 -5.5t3.5 -7.5
l-7 -4q-4 -2 -7 -4.5t-3 -3.5h-18l-5 1l-7 5q-2 0 -4 1t-4 1h-17q-2 0 -3 -1t-5 -3q-2 -3 -6 -6q-1 -3 -1 -10q0 -5 1 -5q2 -2 3 -5.5t3 -7.5h6q1 0 5 -2q5 -1 9.5 -3t10.5 -4l9 -2q5 -4 9 -5t9 -5q5 -2 10 -5t8 -8zM1579 336q-12 7 -16 20q-7 17 -7 31v16l11 20l12 13
q6 7 12 9q3 7 9.5 8t9.5 3q4 0 8 1.5t10 1.5q4 0 10.5 -1.5t10.5 -1.5q5 -2 8.5 -3t7.5 -8q2 -2 5.5 -4.5t6.5 -4.5l13 -13l8 -20q0 -4 1 -9t1 -7q0 -6 -1 -14t-5 -17q-5 -13 -17 -20q-5 -4 -9.5 -7.5t-11.5 -10.5q-5 -1 -12 -1.5t-16 -0.5h-15q-4 0 -10 2q-18 7 -24 18z
M2284 336q-7 -4 -13.5 -7.5t-11.5 -10.5q-8 -2 -12 -2h-30q-5 0 -13 2q-7 4 -12.5 8.5t-10.5 9.5q-6 6 -13 20q-2 9 -4.5 17t-2.5 14q0 2 1 7t1 9q3 5 4 10t4 10q2 3 5 6t5 7q6 4 18 9q3 7 8 8t7 3q6 0 9 1.5t10 1.5q2 0 8.5 -1.5t11.5 -1.5q4 -2 7.5 -3t6.5 -8l17 -9
q2 -4 4 -7t5 -6q2 -5 4 -9.5t3 -10.5q2 -4 3 -9t1 -7q0 -6 -1 -14t-5 -17q0 -6 -5 -11zM2166 127q5 12 5 27q0 16 -5 24q-3 9 -8 15.5t-8 9.5q-10 10 -24 13q-4 5 -12 6t-17 1q-12 0 -25 -7q-8 -1 -13 -4t-11 -9q-4 -3 -7.5 -9.5t-8.5 -15.5q0 -4 -1 -10t-1 -14q0 -9 1 -15
t1 -12q4 -8 8 -14t8 -11q6 -4 11 -8.5t13 -7.5q7 -2 14 -3t11 -1q9 0 17 1t12 3q8 3 14 7.5t10 8.5q11 11 16 25zM1104 127q4 11 4 27q0 13 -4 24q-2 9 -6.5 15.5t-13.5 9.5q-2 6 -7.5 9t-11.5 4q-11 7 -30 7q-14 0 -25 -7q-11 -1 -23 -13q-6 -3 -9 -9.5t-5 -15.5
q-5 -5 -5 -10v-29q0 -5 5 -12q2 -7 5 -14.5t9 -10.5q6 -4 11 -8.5t12 -7.5q11 -4 25 -4q19 0 30 4q13 7 19 16q9 3 13.5 10.5t6.5 14.5zM774 262h139v-39h-100v-55h82v-39h-82v-86h-39v219zM570 223h-58v-180h-43v180h-62v39h163v-39zM1188 864q-19 7 -37 19t-35 26h322
q-18 -14 -36 -26t-36 -19q-24 -6 -45.5 -11t-44.5 -5q-25 0 -45.5 5t-42.5 11zM1389 262h165v-39h-65v-180h-39v180h-61v39zM1366 1315q18 -8 36 -20.5t36 -22.5h-325q38 30 75 43q37 18 88 18q48 0 90 -18zM559 604l-47 68q4 0 11 4q8 5 9 10q9 5 9 11v26q0 1 -2 5
q-3 10 -11 15q-5 9 -14 9q-2 5 -6.5 6t-9.5 1h-57v-155h24v64h23l40 -56q1 -4 8 -6q2 -2 3 -2h20zM1169 604l-67 155h-22l-65 -155h11q7 0 9 2q0 2 7 6l11 27h76l13 -27q1 -4 5 -6q2 -2 8 -2h14zM1930 721q3 -2 8 -7.5t6 -12.5q4 -7 4 -21q0 -12 -4 -23q-1 -5 -6 -9.5
t-8 -6.5q-5 -4 -9 -6.5t-8 -7.5q-9 -4 -23 -4q-6 0 -12 1t-10 3q-5 5 -10.5 7.5t-9.5 6.5q-3 2 -6 6.5t-3 9.5q-4 7 -5 12t-1 11q0 10 6 21q0 7 3 12.5t6 7.5q4 4 9.5 7t10.5 5q9 4 22 4q5 0 11.5 -1t11.5 -3zM801 721q7 -2 9.5 -7.5t4.5 -12.5q4 -7 4 -21q0 -11 -4 -23
q-2 -5 -4.5 -9.5t-9.5 -6.5q-1 -4 -6 -7l-11 -7q-9 -4 -22 -4q-11 0 -23 4q-4 5 -9 7.5t-9 6.5q-2 2 -5.5 6.5t-5.5 9.5q-4 12 -4 23q0 12 4 21q2 7 5.5 12.5t5.5 7.5q4 4 9 7t9 5q5 2 12.5 3t10.5 1q13 0 22 -4q8 -2 11.5 -5t5.5 -7zM2126 759h-22v-120q-1 2 -2 5t-3 4
l-75 104l-3 7h-24v-155h22v121l2 -2l87 -119h18v155zM2218 332h31l6 3q3 3 4 5q6 0 14 5q2 5 3 7t4 4q0 3 3 8t3 10v34q-3 6 -7 10.5t-6 7.5q-10 4 -18 12h-43q-6 -4 -9.5 -7t-9.5 -5q-5 -3 -7.5 -7.5t-4.5 -10.5q-1 -4 -1.5 -7t-0.5 -7v-20q0 -13 5 -18q2 -2 4.5 -4t4.5 -7
l7 -3q2 -2 4 -2q4 -4 7 -5t7 -3zM296 690q5 12 5 20q0 9 -5 18q0 2 -5 7l-6 6q-2 3 -5 7t-10 4q-3 5 -8.5 6t-9.5 1h-52v-155h16v59h36q4 0 9.5 0.5t8.5 2.5q10 4 15 10q4 2 7.5 6t3.5 8zM1579 408q-6 -14 -6 -21v-8q0 -4 3 -5q0 -10 5 -18q0 -2 2 -4t4 -7l5 -3q2 -2 11 -2
q2 -4 5.5 -5t5.5 -3h27q6 2 9.5 3t6.5 5l6 2l4 3q2 5 4.5 7t2.5 4q3 3 4 8t3 10q0 2 1 5.5t1 7.5q0 2 -1 8t-5 13q0 6 -4 10.5t-6 7.5q-3 1 -8 6l-10 6h-42q-4 -4 -10 -7l-10 -5l-5 -8q-3 -5 -3 -10zM997 759h-18v-120l-2 4q-2 6 -2 5l-74 104q-5 0 -6 7h-25v-155h21v124h2
l2 -1v-4l86 -119h16v155zM2115 381q-5 -1 -8.5 -2t-5.5 -2l45 -61h-12l-6 2q-4 0 -4 9l-39 50h-28v-61h-15v140h57q3 0 9 -2q2 -2 6.5 -5.5t5.5 -5.5q4 -2 5 -5.5t7 -7.5v-27q-4 -4 -5 -8t-3 -6zM1342 381q-3 -3 -11 -4l47 -61h-15q-3 0 -3 2q-6 0 -6 9l-39 50h-28v-61h-13
v140h56q2 0 6 -2q10 -1 18 -11q0 -2 3 -5.5t3 -7.5q2 -2 2 -6v-14q0 -1 -2 -7q0 -10 -4 -14l-5 -4q-3 -3 -9 -4zM412 759h-98v-155h98v21h-74v47h58v18h-58v45h74v24zM1721 759h-93v-155h93v21h-69v47h58v18h-58v45h69v24zM2460 454q6 2 5 2h13v-140h-12v114l-2 -2v-2
q-4 -8 -6.5 -17.5t-8.5 -14.5q-5 -7 -7 -12.5t-7 -14.5q-2 -9 -3 -15.5t-5 -9.5q-3 -8 -6.5 -12.5t-5.5 -13.5h-15q-10 14 -15 27t-10 28q-4 12 -12 26.5t-12 28.5v2h-4v-112h-14v140h14q4 0 6 -2l2 -2v-7l49 -105q0 -4 2 -4l1 2v4q0 2 8 6l41 97q2 7 3 7t1 2zM1480 759h-22
v-104q0 -4 -2 -8q-1 -7 -10 -12q0 -2 -4 -3.5t-6 -6.5l-9 -2h-9q-7 0 -13 2q-5 5 -8.5 6.5t-5.5 3.5l-11 12q0 3 -1 7.5t-1 11.5v93h-20v-93q0 -7 1 -11.5t1 -7.5q0 -8 6 -14q3 -8 10 -12q2 -4 4.5 -6.5t8.5 -4.5q2 -2 6.5 -3t7.5 -3q4 0 7 -1.5t8 -1.5t8.5 1.5t11.5 1.5
q2 2 5 3t7 3q3 2 6 4.5t6 6.5q3 2 5 5.5t7 6.5q0 4 3 7t3 7v112zM664 632q2 5 3 8t1 8q0 12 -5.5 20t-12.5 14q-2 0 -3.5 2t-5.5 4l-4 2h-4q-1 0 -1 4q-8 0 -9 1q-8 2 -9.5 3t-5.5 3q-6 5 -9 5q-3 4 -3 6v15q0 1 1.5 2.5t1.5 3.5q2 0 4.5 1t4.5 1q6 2 5 2h10q2 -2 4 -2
q7 0 8 -4q1 -3 4 -3h2q9 0 14 5l4 2q0 2 -2 4l-5 4q-2 1 -4.5 4t-6.5 5q-2 0 -4 2.5t-5 4.5q-5 0 -7 0.5t-4 0.5q-7 0 -12 -0.5t-8 -0.5q-5 -2 -7 -4.5t-6 -4.5q-2 -6 -5.5 -8.5t-8.5 -6.5q0 -4 -2 -7t-2 -9t4 -18l12 -11q2 -2 6 -5t7 -3q5 -2 8 -4t7 -2q1 -2 6 -2t7 -2
l6 -2q2 0 4 -2t2 -3t2 -6q2 -2 2 -7v-9q0 -2 -2 -4t-2 -4t-2 -3q-2 -5 -6 -6l-4 -1q-4 0 -8 -1t-5 -1q-4 0 -7 1t-6 1q-2 0 -3.5 1t-1.5 6l-4 1q-4 4 -11 4h-7l-4 -2l-5 -2q0 -3 3 -3q0 -3 2 -5q0 -4 4 -4v-6h5q7 -7 16 -9t19 -2h10q5 0 11 2q4 2 8.5 4t6.5 5q13 5 14 17z
M1741 316h-18v140h20q3 0 4 -4l74 -104q2 0 2 -5l2 -1v114h14v-140h-12l-82 114v4h-4v-118zM1596 632q9 7 9 16q0 12 -5.5 20t-12.5 14q-6 4 -6 6h-4l-4 2h-3q-4 0 -5 4h-4q-2 0 -5 1q-2 2 -4 3t-7 3l-7 5q-2 1 -3 2l-2 2l-1 2q0 1 -1 3t-1 4q0 4 4 8q0 2 4 6q2 0 3 1t4 1
q2 2 11 2l4 -1q2 -1 5 -1q3 -3 8 -4q6 -3 8 -3q6 0 8 5l5 2q0 2 -2.5 4t-4.5 4q0 1 -3 4l-5 5q-3 0 -5.5 2.5t-6.5 4.5h-6l-5 1q-6 0 -10 -0.5t-8 -0.5l-13 -9q-5 -6 -7 -8.5t-6 -6.5q-1 -4 -3 -7t-2 -9q0 -4 2 -7.5t3 -10.5l10 -11q5 -2 7.5 -5t6.5 -3q4 -2 7.5 -4t6.5 -2
q4 -2 7 -2t6 -2q6 0 10 -4l4 -3q2 -2 2 -6q2 -2 2 -6v-9q0 -3 -2 -5q0 -6 -6 -7q-6 -5 -7 -6t-3 -1q-7 0 -8 -1t-5 -1q-3 0 -6.5 1t-5.5 1q-2 1 -4 3l-4 4l-2 1q-5 4 -10 4h-7q-2 0 -4 -2l-6 -2q2 -1 2 -2t2 -1q0 -3 1 -4l3 -3v-2q6 -6 9 -6q7 -7 14.5 -9t17.5 -2h12
q3 0 11 2q3 2 6.5 4t7.5 5l5 8q3 3 4 9zM78 350q-6 6 -7 17l-3 10q-1 3 -1 10t4 16l2 10t5 10l4 6l5 7q2 2 6.5 4.5t6.5 4.5q6 7 11 8t9 3q3 0 8 1.5t10 1.5q7 0 14.5 -1.5t13.5 -5.5q8 -2 12.5 -6.5t8.5 -9.5q-2 -2 -4 -2v-4h-13q-4 2 -7 5t-7 3h-36l-22 -12
q-4 -3 -7.5 -7.5t-4.5 -10.5q-2 -7 -3 -13t-1 -8q0 -9 4 -13q0 -5 0.5 -10t0.5 -8l5 -4q4 -1 6 -7l7 -4q3 -1 8 -1q3 -4 5.5 -5t6.5 -3h33q2 2 7 3t9 5v29h-14v2q-2 0 -3 1.5t-3 3.5h-2q-1 1 -1 3v4h36v-51q-2 -5 -3.5 -6t-5.5 -8h-12q-8 -2 -12 -2h-34q-4 0 -9 3.5t-11 7.5
q-2 0 -6.5 2.5t-6.5 6.5q-3 4 -5 6.5t-4 7.5zM240 438v-44h56v-15h-56v-47h67v-16h-84v140h84v-18h-67zM1171 438v-44h60v-15h-60v-47h68v-16h-84v140h84v-18h-68zM2375 759h-20q-3 0 -8 -5q-6 -5 -6 -10l-37 -47h-2q0 -2 -2 -2v2l-39 47q-1 7 -4 10q-5 5 -11 5h-18l58 -77
v-2q0 -2 2 -2l2 -2v-72h21v70q2 0 2 2l2 4v2zM641 456v-85q0 -7 2 -10t5 -5q0 -6 3.5 -9.5t5.5 -4.5q0 -2 4.5 -4t6.5 -4q6 -2 8 -2h16q1 0 5 2l9 4q2 1 3.5 2t3.5 2q3 1 8 14q4 3 4 15v85h14v-85q0 -12 -4 -23t-12 -16q-2 -5 -6.5 -9.5t-8.5 -4.5q-8 -1 -13.5 -1.5
t-10.5 -0.5t-11 0.5t-14 1.5q-2 0 -6.5 4.5l-9.5 9.5l-10 16q-1 6 -3.5 11t-2.5 12v85h14zM2253 625h-69v134h-21v-155h90v21zM1271 625h-67v134h-20v-155h87v21zM1452 336q1 2 2 3.5t2 3.5q2 2 3 6.5t1 6.5q0 9 -2 11t-3 4.5t-3 4.5q-1 1 -8 3q-4 0 -6 2t-6 2q-8 0 -14 6
q-9 0 -13 7q-2 0 -3.5 3.5t-3.5 7.5v22q0 1 2 7q0 8 7 9l6 7q2 1 3.5 2t3.5 2q5 0 7.5 1.5t8.5 1.5l6 -2l4 -1q4 0 5 -1t5 -3q2 0 4 -3.5t2 -5.5q4 0 6 -3l1 -2l-2 -2q-6 -2 -9 -2h-6q-2 2 -2 4h-23q-9 0 -9 -2q-5 -7 -5 -8q-4 0 -4 -8q0 -5 4 -6q0 -5 3 -6q0 -1 3 -4l4 -1
q4 -4 7.5 -4t7.5 -3q3 0 4 -1l2 -1q4 0 8 -5h4q2 0 4 -2h2q5 -4 8.5 -7t5.5 -4q1 -5 1.5 -10.5t0.5 -9.5v-10q0 -5 -4 -6q-3 -4 -5.5 -7.5t-6.5 -5.5q-2 -2 -6 -5.5t-6 -3.5q-6 -2 -10 -2h-9q-11 0 -18.5 1t-12.5 10q-2 0 -3.5 2.5t-5.5 4.5v4l-2 2l4 2h7q1 0 3 -1t4 -1
q4 -4 6.5 -5t4.5 -3h22q8 0 12 4zM1069 316l-59 140h6q6 0 8 -2t3 -2t3 -7l43 -103v-2l2 -6v6l2 2q5 14 13 27.5t12 24.5q4 16 10 28t12 23q0 7 1.5 7t1.5 2q6 2 7 2h11q-8 -18 -15.5 -35t-16.5 -34q-4 -9 -7 -18.5t-6 -18.5l-16 -34h-15zM532 438v-49h60v-12h-60v-61h-16
v140h85v-18h-69zM1959 438v-49h54v-12h-54v-61h-16v140h81v-18h-65zM879 456v-124h63v-16h-80v140h17zM371 316v122h-46v18h105v-18h-47v-122h-12zM784 456v-124h64v-16h-80v140h16zM270 728q2 -1 3 -4t3 -5q4 -4 4 -9v-4q0 -5 -4 -9q-2 -2 -3 -4.5t-3 -2.5l-4 -4l-4 -4h-46
v53h36q4 0 10 -2q1 0 4 -3zM1325 389q4 0 6 3q4 4 9 4l2 5q0 2 5 6q0 1 1 4t1 7q0 2 -1 3.5t-1 4.5q-7 3 -7 8q-5 0 -9 4h-44v-49h38zM2101 392q4 4 7 4q7 7 7 11q2 4 2 11q0 4 -2 8q0 2 -7 8q-3 0 -7 4h-44v-49h36q3 0 8 3zM1525 456v-140h-18v140h18zM518 701l-4 -7
q-2 0 -3 -2t-3 -2q-2 -2 -10 -2h-33v47h33q4 0 10 -2q2 0 6 -5q1 -2 2 -3.5t2 -3.5q3 -2 3 -9q0 -5 -3 -11zM684 129l-27 69q0 2 -1 3l-1 2q0 4 -3 6v-6l-1 -2q-1 -1 -1 -3l-27 -69h61zM1093 727v-4l27 -64h-59l30 64v5zM1755 82q6 0 6 -6q2 -2 2 -5v-4q0 -9 -2 -11
q0 -5 -6 -9q-3 0 -6 -4h-17q-4 4 -11 4q0 2 -5 9q-2 2 -2 11v4q0 3 2 5l3 4l2 2q7 4 11 4q1 3 4 3h10q3 0 3 -3q3 0 6 -4z" />
    <glyph glyph-name="six" unicode="6" 
d="M2478 1093v-587h-2404v587h910q0 30 5.5 58t20.5 53q12 29 26 52.5t37 41.5q39 42 91 62q28 12 55.5 17t56.5 5q33 0 61.5 -6.5t53.5 -15.5q27 -14 50.5 -29.5t45.5 -36.5q35 -38 60 -94q11 -27 15.5 -54t4.5 -53h911zM1030 1194q-20 -49 -20 -101q0 -58 20 -106
q10 -22 24.5 -43.5t29.5 -42.5q20 -17 41.5 -32t45.5 -25q46 -23 105 -23q31 0 56.5 4.5t47.5 16.5q48 19 83 57q22 20 35.5 41t26.5 43q20 54 20 110q0 20 -3.5 43.5t-11.5 47.5q-14 40 -43 72q-14 20 -29.5 33.5t-34.5 25.5l-76 36q-16 3 -33 6t-38 3q-29 0 -55.5 -5.5
t-51.5 -19.5q-50 -19 -85 -57q-17 -19 -30.5 -39.5t-23.5 -44.5zM1142 936l314 317q62 -80 62 -160q0 -24 -3.5 -45.5t-11.5 -41.5q-8 -19 -17.5 -37t-23.5 -33h-320zM1095 928q-14 17 -25 36.5t-19 39.5q-9 18 -12.5 40.5t-3.5 48.5q0 18 3.5 39t12.5 43q7 35 40 68h318z
M1135 207q2 -4 4.5 -11t5.5 -14q2 -10 2 -14v-32q0 -5 -2 -11l-6 -15l-4 -14q-6 -4 -10.5 -10t-8.5 -10q-6 -5 -11 -10.5t-10 -9.5q-9 -5 -15.5 -7t-12.5 -4q-10 -2 -15 -2h-17q-9 0 -19 2t-23 4q-12 6 -18.5 13t-17.5 14q-15 14 -21 35q-4 10 -6 19.5t-2 23.5v14q0 4 2 14
q4 17 12 25q4 8 7.5 13t7.5 11q9 5 13.5 9.5t10.5 9.5l12 4l17 6q5 0 11.5 1t13.5 1q10 0 17 -1t15 -1q6 -4 12.5 -6t15.5 -4q5 -5 10 -9.5t11 -9.5q4 -6 8.5 -11t10.5 -13zM2195 207q4 -4 6.5 -11t4.5 -14q4 -7 4 -14v-32q0 -7 -4 -11q-2 -7 -4.5 -15t-6.5 -14l-16 -20
l-12 -10l-14 -10q-5 -5 -12 -7t-13 -4q-8 -2 -14 -2h-17q-19 0 -43 6q-8 6 -16 13t-17 14q-8 6 -14 14t-8 21q-6 10 -7.5 19.5t-1.5 23.5q0 8 1 14t1 14l6 14t7 11q2 8 6 13t10 11q3 5 10.5 9.5t12.5 9.5q4 2 11 4t13 6q11 0 17 1t12 1q9 0 17 -1t14 -1q6 -4 13 -6t12 -4
l26 -19q2 -6 8 -11t8 -13zM2433 260l1 1q1 1 6 1h38v-219h-38v160l-5 -9v-8q0 -2 -2 -4q-6 -16 -13 -34.5t-16 -31.5q-6 -20 -12 -36.5t-14 -36.5h-37l-55 139q-6 3 -6 12q0 4 -1 4l-2 2v-157h-42v219h40q5 0 6.5 -1t4.5 -1q2 -2 3 -2t4 -2l7 -4q0 -2 2 -3.5t2 -3.5
q4 -18 11 -32.5t16 -34.5l12 -33q3 -8 6 -15l6 -14v-14q3 0 4 -4q0 4 1 4v14l11 13l44 116q0 1 2 3l2 4q0 1 3 3l3 1q2 2 4 2t4 2zM1329 262h38v-219h-36l-100 146l-4 5v2q-3 4 -3 5q-4 1 -4 4q0 4 -7 4v-166h-37v219h33q4 0 9.5 -1t5.5 -3q3 -2 5 -2t4 -2l22 -33
q6 -8 11 -16.5t10 -19.5q13 -13 24 -29t25 -29q0 -2 1 -4.5t1 -6.5l1 -3q0 -2 1 -3v152zM672 262l94 -219h-25q-9 0 -16 4q-2 2 -4 6.5t-6 8.5l-14 27h-100l-9 -27q0 -6 -4 -6q-2 -5 -4 -5l-3 -4q-2 0 -4.5 -1t-6.5 -1q0 -2 -2 -2h-27l96 219h35zM260 262h139v-39h-100v-49
h82v-41h-82v-51h100v-39h-139v219zM839 659q1 7 2 11t1 10q0 12 -3 21q0 7 -4.5 10.5t-6.5 9.5q-2 3 -4.5 6.5t-6.5 7.5l-7 6q-2 3 -9 9q-4 2 -8 4.5t-11 4.5q-5 0 -9.5 0.5t-10.5 0.5q-3 0 -8.5 -0.5t-12.5 -0.5q-6 -2 -10 -4.5t-8 -4.5q-4 -6 -7.5 -8.5t-7.5 -6.5
q-13 -7 -14 -14q-4 -6 -5 -9.5l-3 -10.5q-1 -5 -1.5 -10t-0.5 -11t2 -14.5t4 -15.5t6.5 -12.5t11.5 -12.5q10 -15 25 -15q10 -6 29 -6h20q15 5 19 8q11 4 16 13q3 4 6 7.5t5 8.5q2 4 6.5 9t4.5 9zM1966 659v42l-7 20q-5 7 -15 14q-1 4 -6 6.5t-10 8.5l-4 2t-5 2l-7 5
q-7 0 -12 0.5t-10 0.5q-6 0 -11 -0.5t-9 -0.5l-22 -9q-3 -6 -6 -8.5t-7 -6.5q-3 -4 -6.5 -7t-5.5 -7q-2 -6 -4.5 -9.5t-2.5 -10.5q-6 -9 -6 -21q0 -6 3 -14.5t6 -15.5q4 -15 16 -25q7 -15 26 -15q10 -6 29 -6h22q3 2 8 4t8 4l10 6t6 7q11 8 15 16zM74 262h158v-24
q0 -4 -1 -6q0 -3 -2 -5l-4 -4l-105 -143h1l2 2h108v-39h-164v13q0 11 2 13q0 2 5 7v4l2 4q2 2 4 3.5t2 6.5l94 129h-102v39zM1839 203q-4 -4 -7 -10.5t-7 -14.5q-2 -4 -4 -10t-2 -14q0 -7 2 -15l4 -12q2 -7 6 -14.5t8 -10.5q4 -4 9.5 -8.5t14.5 -7.5q12 -4 27 -4q5 0 10 1
t12 1q3 2 8 5t8 7q3 0 9 2h13q3 0 9 -2q2 -1 3.5 -3t3.5 -4l6 -7q-3 -4 -6 -7.5t-7 -7.5q-7 -5 -11.5 -8t-12.5 -6q-7 -4 -11.5 -5t-10.5 -3t-11 -2h-12q-12 0 -23.5 2t-21.5 4q-10 5 -18.5 12t-16.5 15q-16 13 -22 35q-4 10 -7 19.5t-3 23.5q0 10 1 14l4 14q1 7 3 14t6 11
q6 8 8.5 13t9.5 11q14 9 25 19q4 2 9.5 4t18.5 6q5 0 12 1t15 1h13q4 0 10 -2t10.5 -3t11.5 -3q8 -4 12.5 -6.5t11.5 -7.5l13 -17l-6 -8q-2 -1 -5 -4l-2 -4h-15q-7 0 -16 4l-16 10q-10 2 -12 2h-10q-17 0 -27 -7q-17 -1 -24 -13zM1690 151l7 -10.5t3 -7.5q6 -8 6 -20
q0 -15 -8 -29l-8 -12l-9 -10q-7 -6 -11.5 -9.5t-12.5 -5.5q-5 -2 -14 -3t-15 -1q-8 0 -14.5 1l-19.5 3q-5 2 -10 6.5t-11 13.5q-4 1 -6 5l-4 8q-7 2 -7 9l7 5q2 2 4 2h4l2 2h10q4 0 4 -2q7 0 9 -2q7 -5 10.5 -6.5t5.5 -3.5q2 0 6 -1t10 -1h5q2 0 6 2q5 1 8 2t7 3q6 6 7 9
q2 4 4 7.5t2 7.5q0 7 -6 10q-5 6 -7 6q-2 4 -7.5 5t-7.5 2q-6 0 -14 7q-5 0 -9 1t-9 7q-11 3 -14.5 6t-7.5 7q-12 4 -12 14q-6 10 -6 25q0 18 6 26l6 11l8 10q4 2 10 4t13 6q6 0 10.5 1t13.5 1q4 0 8.5 -1t11.5 -1l15 -6q3 -4 6.5 -6.5t7.5 -7.5q4 -2 7.5 -5.5t3.5 -7.5
l-7 -4q-4 -2 -7 -4.5t-3 -3.5h-18l-5 1l-7 5q-2 0 -4 1t-4 1h-17q-2 0 -3 -1t-5 -3q-2 -3 -6 -6q-1 -3 -1 -10q0 -5 1 -5q2 -2 3 -5.5t3 -7.5h6q1 0 5 -2q5 -1 9.5 -3t10.5 -4l9 -2q5 -4 9 -5t9 -5q5 -2 10 -5t8 -8zM1579 336q-12 7 -16 20q-7 17 -7 31v16l11 20l12 13
q6 7 12 9q3 7 9.5 8t9.5 3q4 0 8 1.5t10 1.5q4 0 10.5 -1.5t10.5 -1.5q5 -2 8.5 -3t7.5 -8q2 -2 5.5 -4.5t6.5 -4.5l13 -13l8 -20q0 -4 1 -9t1 -7q0 -6 -1 -14t-5 -17q-5 -13 -17 -20q-5 -4 -9.5 -7.5t-11.5 -10.5q-5 -1 -12 -1.5t-16 -0.5h-15q-4 0 -10 2q-18 7 -24 18z
M2284 336q-7 -4 -13.5 -7.5t-11.5 -10.5q-8 -2 -12 -2h-30q-5 0 -13 2q-7 4 -12.5 8.5t-10.5 9.5q-6 6 -13 20q-2 9 -4.5 17t-2.5 14q0 2 1 7t1 9q3 5 4 10t4 10q2 3 5 6t5 7q6 4 18 9q3 7 8 8t7 3q6 0 9 1.5t10 1.5q2 0 8.5 -1.5t11.5 -1.5q4 -2 7.5 -3t6.5 -8l17 -9
q2 -4 4 -7t5 -6q2 -5 4 -9.5t3 -10.5q2 -4 3 -9t1 -7q0 -6 -1 -14t-5 -17q0 -6 -5 -11zM2166 127q5 12 5 27q0 16 -5 24q-3 9 -8 15.5t-8 9.5q-10 10 -24 13q-4 5 -12 6t-17 1q-12 0 -25 -7q-8 -1 -13 -4t-11 -9q-4 -3 -7.5 -9.5t-8.5 -15.5q0 -4 -1 -10t-1 -14q0 -9 1 -15
t1 -12q4 -8 8 -14t8 -11q6 -4 11 -8.5t13 -7.5q7 -2 14 -3t11 -1q9 0 17 1t12 3q8 3 14 7.5t10 8.5q11 11 16 25zM1104 127q4 11 4 27q0 13 -4 24q-2 9 -6.5 15.5t-13.5 9.5q-2 6 -7.5 9t-11.5 4q-11 7 -30 7q-14 0 -25 -7q-11 -1 -23 -13q-6 -3 -9 -9.5t-5 -15.5
q-5 -5 -5 -10v-29q0 -5 5 -12q2 -7 5 -14.5t9 -10.5q6 -4 11 -8.5t12 -7.5q11 -4 25 -4q19 0 30 4q13 7 19 16q9 3 13.5 10.5t6.5 14.5zM774 262h139v-39h-100v-55h82v-39h-82v-86h-39v219zM570 223h-58v-180h-43v180h-62v39h163v-39zM1188 864q-19 7 -37 19t-35 26h322
q-18 -14 -36 -26t-36 -19q-24 -6 -45.5 -11t-44.5 -5q-25 0 -45.5 5t-42.5 11zM1389 262h165v-39h-65v-180h-39v180h-61v39zM1366 1315q18 -8 36 -20.5t36 -22.5h-325q38 30 75 43q37 18 88 18q48 0 90 -18zM559 604l-47 68q4 0 11 4q8 5 9 10q9 5 9 11v26q0 1 -2 5
q-3 10 -11 15q-5 9 -14 9q-2 5 -6.5 6t-9.5 1h-57v-155h24v64h23l40 -56q1 -4 8 -6q2 -2 3 -2h20zM1169 604l-67 155h-22l-65 -155h11q7 0 9 2q0 2 7 6l11 27h76l13 -27q1 -4 5 -6q2 -2 8 -2h14zM1930 721q3 -2 8 -7.5t6 -12.5q4 -7 4 -21q0 -12 -4 -23q-1 -5 -6 -9.5
t-8 -6.5q-5 -4 -9 -6.5t-8 -7.5q-9 -4 -23 -4q-6 0 -12 1t-10 3q-5 5 -10.5 7.5t-9.5 6.5q-3 2 -6 6.5t-3 9.5q-4 7 -5 12t-1 11q0 10 6 21q0 7 3 12.5t6 7.5q4 4 9.5 7t10.5 5q9 4 22 4q5 0 11.5 -1t11.5 -3zM801 721q7 -2 9.5 -7.5t4.5 -12.5q4 -7 4 -21q0 -11 -4 -23
q-2 -5 -4.5 -9.5t-9.5 -6.5q-1 -4 -6 -7l-11 -7q-9 -4 -22 -4q-11 0 -23 4q-4 5 -9 7.5t-9 6.5q-2 2 -5.5 6.5t-5.5 9.5q-4 12 -4 23q0 12 4 21q2 7 5.5 12.5t5.5 7.5q4 4 9 7t9 5q5 2 12.5 3t10.5 1q13 0 22 -4q8 -2 11.5 -5t5.5 -7zM2126 759h-22v-120q-1 2 -2 5t-3 4
l-75 104l-3 7h-24v-155h22v121l2 -2l87 -119h18v155zM2218 332h31l6 3q3 3 4 5q6 0 14 5q2 5 3 7t4 4q0 3 3 8t3 10v34q-3 6 -7 10.5t-6 7.5q-10 4 -18 12h-43q-6 -4 -9.5 -7t-9.5 -5q-5 -3 -7.5 -7.5t-4.5 -10.5q-1 -4 -1.5 -7t-0.5 -7v-20q0 -13 5 -18q2 -2 4.5 -4t4.5 -7
l7 -3q2 -2 4 -2q4 -4 7 -5t7 -3zM296 690q5 12 5 20q0 9 -5 18q0 2 -5 7l-6 6q-2 3 -5 7t-10 4q-3 5 -8.5 6t-9.5 1h-52v-155h16v59h36q4 0 9.5 0.5t8.5 2.5q10 4 15 10q4 2 7.5 6t3.5 8zM1579 408q-6 -14 -6 -21v-8q0 -4 3 -5q0 -10 5 -18q0 -2 2 -4t4 -7l5 -3q2 -2 11 -2
q2 -4 5.5 -5t5.5 -3h27q6 2 9.5 3t6.5 5l6 2l4 3q2 5 4.5 7t2.5 4q3 3 4 8t3 10q0 2 1 5.5t1 7.5q0 2 -1 8t-5 13q0 6 -4 10.5t-6 7.5q-3 1 -8 6l-10 6h-42q-4 -4 -10 -7l-10 -5l-5 -8q-3 -5 -3 -10zM997 759h-18v-120l-2 4q-2 6 -2 5l-74 104q-5 0 -6 7h-25v-155h21v124h2
l2 -1v-4l86 -119h16v155zM2115 381q-5 -1 -8.5 -2t-5.5 -2l45 -61h-12l-6 2q-4 0 -4 9l-39 50h-28v-61h-15v140h57q3 0 9 -2q2 -2 6.5 -5.5t5.5 -5.5q4 -2 5 -5.5t7 -7.5v-27q-4 -4 -5 -8t-3 -6zM1342 381q-3 -3 -11 -4l47 -61h-15q-3 0 -3 2q-6 0 -6 9l-39 50h-28v-61h-13
v140h56q2 0 6 -2q10 -1 18 -11q0 -2 3 -5.5t3 -7.5q2 -2 2 -6v-14q0 -1 -2 -7q0 -10 -4 -14l-5 -4q-3 -3 -9 -4zM412 759h-98v-155h98v21h-74v47h58v18h-58v45h74v24zM1721 759h-93v-155h93v21h-69v47h58v18h-58v45h69v24zM2460 454q6 2 5 2h13v-140h-12v114l-2 -2v-2
q-4 -8 -6.5 -17.5t-8.5 -14.5q-5 -7 -7 -12.5t-7 -14.5q-2 -9 -3 -15.5t-5 -9.5q-3 -8 -6.5 -12.5t-5.5 -13.5h-15q-10 14 -15 27t-10 28q-4 12 -12 26.5t-12 28.5v2h-4v-112h-14v140h14q4 0 6 -2l2 -2v-7l49 -105q0 -4 2 -4l1 2v4q0 2 8 6l41 97q2 7 3 7t1 2zM1480 759h-22
v-104q0 -4 -2 -8q-1 -7 -10 -12q0 -2 -4 -3.5t-6 -6.5l-9 -2h-9q-7 0 -13 2q-5 5 -8.5 6.5t-5.5 3.5l-11 12q0 3 -1 7.5t-1 11.5v93h-20v-93q0 -7 1 -11.5t1 -7.5q0 -8 6 -14q3 -8 10 -12q2 -4 4.5 -6.5t8.5 -4.5q2 -2 6.5 -3t7.5 -3q4 0 7 -1.5t8 -1.5t8.5 1.5t11.5 1.5
q2 2 5 3t7 3q3 2 6 4.5t6 6.5q3 2 5 5.5t7 6.5q0 4 3 7t3 7v112zM664 632q2 5 3 8t1 8q0 12 -5.5 20t-12.5 14q-2 0 -3.5 2t-5.5 4l-4 2h-4q-1 0 -1 4q-8 0 -9 1q-8 2 -9.5 3t-5.5 3q-6 5 -9 5q-3 4 -3 6v15q0 1 1.5 2.5t1.5 3.5q2 0 4.5 1t4.5 1q6 2 5 2h10q2 -2 4 -2
q7 0 8 -4q1 -3 4 -3h2q9 0 14 5l4 2q0 2 -2 4l-5 4q-2 1 -4.5 4t-6.5 5q-2 0 -4 2.5t-5 4.5q-5 0 -7 0.5t-4 0.5q-7 0 -12 -0.5t-8 -0.5q-5 -2 -7 -4.5t-6 -4.5q-2 -6 -5.5 -8.5t-8.5 -6.5q0 -4 -2 -7t-2 -9t4 -18l12 -11q2 -2 6 -5t7 -3q5 -2 8 -4t7 -2q1 -2 6 -2t7 -2
l6 -2q2 0 4 -2t2 -3t2 -6q2 -2 2 -7v-9q0 -2 -2 -4t-2 -4t-2 -3q-2 -5 -6 -6l-4 -1q-4 0 -8 -1t-5 -1q-4 0 -7 1t-6 1q-2 0 -3.5 1t-1.5 6l-4 1q-4 4 -11 4h-7l-4 -2l-5 -2q0 -3 3 -3q0 -3 2 -5q0 -4 4 -4v-6h5q7 -7 16 -9t19 -2h10q5 0 11 2q4 2 8.5 4t6.5 5q13 5 14 17z
M1741 316h-18v140h20q3 0 4 -4l74 -104q2 0 2 -5l2 -1v114h14v-140h-12l-82 114v4h-4v-118zM1596 632q9 7 9 16q0 12 -5.5 20t-12.5 14q-6 4 -6 6h-4l-4 2h-3q-4 0 -5 4h-4q-2 0 -5 1q-2 2 -4 3t-7 3l-7 5q-2 1 -3 2l-2 2l-1 2q0 1 -1 3t-1 4q0 4 4 8q0 2 4 6q2 0 3 1t4 1
q2 2 11 2l4 -1q2 -1 5 -1q3 -3 8 -4q6 -3 8 -3q6 0 8 5l5 2q0 2 -2.5 4t-4.5 4q0 1 -3 4l-5 5q-3 0 -5.5 2.5t-6.5 4.5h-6l-5 1q-6 0 -10 -0.5t-8 -0.5l-13 -9q-5 -6 -7 -8.5t-6 -6.5q-1 -4 -3 -7t-2 -9q0 -4 2 -7.5t3 -10.5l10 -11q5 -2 7.5 -5t6.5 -3q4 -2 7.5 -4t6.5 -2
q4 -2 7 -2t6 -2q6 0 10 -4l4 -3q2 -2 2 -6q2 -2 2 -6v-9q0 -3 -2 -5q0 -6 -6 -7q-6 -5 -7 -6t-3 -1q-7 0 -8 -1t-5 -1q-3 0 -6.5 1t-5.5 1q-2 1 -4 3l-4 4l-2 1q-5 4 -10 4h-7q-2 0 -4 -2l-6 -2q2 -1 2 -2t2 -1q0 -3 1 -4l3 -3v-2q6 -6 9 -6q7 -7 14.5 -9t17.5 -2h12
q3 0 11 2q3 2 6.5 4t7.5 5l5 8q3 3 4 9zM78 350q-6 6 -7 17l-3 10q-1 3 -1 10t4 16l2 10t5 10l4 6l5 7q2 2 6.5 4.5t6.5 4.5q6 7 11 8t9 3q3 0 8 1.5t10 1.5q7 0 14.5 -1.5t13.5 -5.5q8 -2 12.5 -6.5t8.5 -9.5q-2 -2 -4 -2v-4h-13q-4 2 -7 5t-7 3h-36l-22 -12
q-4 -3 -7.5 -7.5t-4.5 -10.5q-2 -7 -3 -13t-1 -8q0 -9 4 -13q0 -5 0.5 -10t0.5 -8l5 -4q4 -1 6 -7l7 -4q3 -1 8 -1q3 -4 5.5 -5t6.5 -3h33q2 2 7 3t9 5v29h-14v2q-2 0 -3 1.5t-3 3.5h-2q-1 1 -1 3v4h36v-51q-2 -5 -3.5 -6t-5.5 -8h-12q-8 -2 -12 -2h-34q-4 0 -9 3.5t-11 7.5
q-2 0 -6.5 2.5t-6.5 6.5q-3 4 -5 6.5t-4 7.5zM240 438v-44h56v-15h-56v-47h67v-16h-84v140h84v-18h-67zM1171 438v-44h60v-15h-60v-47h68v-16h-84v140h84v-18h-68zM2375 759h-20q-3 0 -8 -5q-6 -5 -6 -10l-37 -47h-2q0 -2 -2 -2v2l-39 47q-1 7 -4 10q-5 5 -11 5h-18l58 -77
v-2q0 -2 2 -2l2 -2v-72h21v70q2 0 2 2l2 4v2zM641 456v-85q0 -7 2 -10t5 -5q0 -6 3.5 -9.5t5.5 -4.5q0 -2 4.5 -4t6.5 -4q6 -2 8 -2h16q1 0 5 2l9 4q2 1 3.5 2t3.5 2q3 1 8 14q4 3 4 15v85h14v-85q0 -12 -4 -23t-12 -16q-2 -5 -6.5 -9.5t-8.5 -4.5q-8 -1 -13.5 -1.5
t-10.5 -0.5t-11 0.5t-14 1.5q-2 0 -6.5 4.5l-9.5 9.5l-10 16q-1 6 -3.5 11t-2.5 12v85h14zM2253 625h-69v134h-21v-155h90v21zM1271 625h-67v134h-20v-155h87v21zM1452 336q1 2 2 3.5t2 3.5q2 2 3 6.5t1 6.5q0 9 -2 11t-3 4.5t-3 4.5q-1 1 -8 3q-4 0 -6 2t-6 2q-8 0 -14 6
q-9 0 -13 7q-2 0 -3.5 3.5t-3.5 7.5v22q0 1 2 7q0 8 7 9l6 7q2 1 3.5 2t3.5 2q5 0 7.5 1.5t8.5 1.5l6 -2l4 -1q4 0 5 -1t5 -3q2 0 4 -3.5t2 -5.5q4 0 6 -3l1 -2l-2 -2q-6 -2 -9 -2h-6q-2 2 -2 4h-23q-9 0 -9 -2q-5 -7 -5 -8q-4 0 -4 -8q0 -5 4 -6q0 -5 3 -6q0 -1 3 -4l4 -1
q4 -4 7.5 -4t7.5 -3q3 0 4 -1l2 -1q4 0 8 -5h4q2 0 4 -2h2q5 -4 8.5 -7t5.5 -4q1 -5 1.5 -10.5t0.5 -9.5v-10q0 -5 -4 -6q-3 -4 -5.5 -7.5t-6.5 -5.5q-2 -2 -6 -5.5t-6 -3.5q-6 -2 -10 -2h-9q-11 0 -18.5 1t-12.5 10q-2 0 -3.5 2.5t-5.5 4.5v4l-2 2l4 2h7q1 0 3 -1t4 -1
q4 -4 6.5 -5t4.5 -3h22q8 0 12 4zM1069 316l-59 140h6q6 0 8 -2t3 -2t3 -7l43 -103v-2l2 -6v6l2 2q5 14 13 27.5t12 24.5q4 16 10 28t12 23q0 7 1.5 7t1.5 2q6 2 7 2h11q-8 -18 -15.5 -35t-16.5 -34q-4 -9 -7 -18.5t-6 -18.5l-16 -34h-15zM532 438v-49h60v-12h-60v-61h-16
v140h85v-18h-69zM1959 438v-49h54v-12h-54v-61h-16v140h81v-18h-65zM879 456v-124h63v-16h-80v140h17zM371 316v122h-46v18h105v-18h-47v-122h-12zM784 456v-124h64v-16h-80v140h16zM270 728q2 -1 3 -4t3 -5q4 -4 4 -9v-4q0 -5 -4 -9q-2 -2 -3 -4.5t-3 -2.5l-4 -4l-4 -4h-46
v53h36q4 0 10 -2q1 0 4 -3zM1325 389q4 0 6 3q4 4 9 4l2 5q0 2 5 6q0 1 1 4t1 7q0 2 -1 3.5t-1 4.5q-7 3 -7 8q-5 0 -9 4h-44v-49h38zM2101 392q4 4 7 4q7 7 7 11q2 4 2 11q0 4 -2 8q0 2 -7 8q-3 0 -7 4h-44v-49h36q3 0 8 3zM1525 456v-140h-18v140h18zM518 701l-4 -7
q-2 0 -3 -2t-3 -2q-2 -2 -10 -2h-33v47h33q4 0 10 -2q2 0 6 -5q1 -2 2 -3.5t2 -3.5q3 -2 3 -9q0 -5 -3 -11zM684 129l-27 69q0 2 -1 3l-1 2q0 4 -3 6v-6l-1 -2q-1 -1 -1 -3l-27 -69h61zM1093 727v-4l27 -64h-59l30 64v5zM1755 82q6 0 6 -6q2 -2 2 -5v-4q0 -9 -2 -11
q0 -5 -6 -9q-3 0 -6 -4h-17q-4 4 -11 4q0 2 -5 9q-2 2 -2 11v4q0 3 2 5l3 4l2 2q7 4 11 4q1 3 4 3h10q3 0 3 -3q3 0 6 -4z" />
    <glyph glyph-name="seven" unicode="7" 
d="M2478 1093v-587h-2404v587h910q0 30 5.5 58t20.5 53q12 29 26 52.5t37 41.5q39 42 91 62q28 12 55.5 17t56.5 5q33 0 61.5 -6.5t53.5 -15.5q27 -14 50.5 -29.5t45.5 -36.5q35 -38 60 -94q11 -27 15.5 -54t4.5 -53h911zM1030 1194q-20 -49 -20 -101q0 -58 20 -106
q10 -22 24.5 -43.5t29.5 -42.5q20 -17 41.5 -32t45.5 -25q46 -23 105 -23q31 0 56.5 4.5t47.5 16.5q48 19 83 57q22 20 35.5 41t26.5 43q20 54 20 110q0 20 -3.5 43.5t-11.5 47.5q-14 40 -43 72q-14 20 -29.5 33.5t-34.5 25.5l-76 36q-16 3 -33 6t-38 3q-29 0 -55.5 -5.5
t-51.5 -19.5q-50 -19 -85 -57q-17 -19 -30.5 -39.5t-23.5 -44.5zM1142 936l314 317q62 -80 62 -160q0 -24 -3.5 -45.5t-11.5 -41.5q-8 -19 -17.5 -37t-23.5 -33h-320zM1095 928q-14 17 -25 36.5t-19 39.5q-9 18 -12.5 40.5t-3.5 48.5q0 18 3.5 39t12.5 43q7 35 40 68h318z
M1135 207q2 -4 4.5 -11t5.5 -14q2 -10 2 -14v-32q0 -5 -2 -11l-6 -15l-4 -14q-6 -4 -10.5 -10t-8.5 -10q-6 -5 -11 -10.5t-10 -9.5q-9 -5 -15.5 -7t-12.5 -4q-10 -2 -15 -2h-17q-9 0 -19 2t-23 4q-12 6 -18.5 13t-17.5 14q-15 14 -21 35q-4 10 -6 19.5t-2 23.5v14q0 4 2 14
q4 17 12 25q4 8 7.5 13t7.5 11q9 5 13.5 9.5t10.5 9.5l12 4l17 6q5 0 11.5 1t13.5 1q10 0 17 -1t15 -1q6 -4 12.5 -6t15.5 -4q5 -5 10 -9.5t11 -9.5q4 -6 8.5 -11t10.5 -13zM2195 207q4 -4 6.5 -11t4.5 -14q4 -7 4 -14v-32q0 -7 -4 -11q-2 -7 -4.5 -15t-6.5 -14l-16 -20
l-12 -10l-14 -10q-5 -5 -12 -7t-13 -4q-8 -2 -14 -2h-17q-19 0 -43 6q-8 6 -16 13t-17 14q-8 6 -14 14t-8 21q-6 10 -7.5 19.5t-1.5 23.5q0 8 1 14t1 14l6 14t7 11q2 8 6 13t10 11q3 5 10.5 9.5t12.5 9.5q4 2 11 4t13 6q11 0 17 1t12 1q9 0 17 -1t14 -1q6 -4 13 -6t12 -4
l26 -19q2 -6 8 -11t8 -13zM2433 260l1 1q1 1 6 1h38v-219h-38v160l-5 -9v-8q0 -2 -2 -4q-6 -16 -13 -34.5t-16 -31.5q-6 -20 -12 -36.5t-14 -36.5h-37l-55 139q-6 3 -6 12q0 4 -1 4l-2 2v-157h-42v219h40q5 0 6.5 -1t4.5 -1q2 -2 3 -2t4 -2l7 -4q0 -2 2 -3.5t2 -3.5
q4 -18 11 -32.5t16 -34.5l12 -33q3 -8 6 -15l6 -14v-14q3 0 4 -4q0 4 1 4v14l11 13l44 116q0 1 2 3l2 4q0 1 3 3l3 1q2 2 4 2t4 2zM1329 262h38v-219h-36l-100 146l-4 5v2q-3 4 -3 5q-4 1 -4 4q0 4 -7 4v-166h-37v219h33q4 0 9.5 -1t5.5 -3q3 -2 5 -2t4 -2l22 -33
q6 -8 11 -16.5t10 -19.5q13 -13 24 -29t25 -29q0 -2 1 -4.5t1 -6.5l1 -3q0 -2 1 -3v152zM672 262l94 -219h-25q-9 0 -16 4q-2 2 -4 6.5t-6 8.5l-14 27h-100l-9 -27q0 -6 -4 -6q-2 -5 -4 -5l-3 -4q-2 0 -4.5 -1t-6.5 -1q0 -2 -2 -2h-27l96 219h35zM260 262h139v-39h-100v-49
h82v-41h-82v-51h100v-39h-139v219zM839 659q1 7 2 11t1 10q0 12 -3 21q0 7 -4.5 10.5t-6.5 9.5q-2 3 -4.5 6.5t-6.5 7.5l-7 6q-2 3 -9 9q-4 2 -8 4.5t-11 4.5q-5 0 -9.5 0.5t-10.5 0.5q-3 0 -8.5 -0.5t-12.5 -0.5q-6 -2 -10 -4.5t-8 -4.5q-4 -6 -7.5 -8.5t-7.5 -6.5
q-13 -7 -14 -14q-4 -6 -5 -9.5l-3 -10.5q-1 -5 -1.5 -10t-0.5 -11t2 -14.5t4 -15.5t6.5 -12.5t11.5 -12.5q10 -15 25 -15q10 -6 29 -6h20q15 5 19 8q11 4 16 13q3 4 6 7.5t5 8.5q2 4 6.5 9t4.5 9zM1966 659v42l-7 20q-5 7 -15 14q-1 4 -6 6.5t-10 8.5l-4 2t-5 2l-7 5
q-7 0 -12 0.5t-10 0.5q-6 0 -11 -0.5t-9 -0.5l-22 -9q-3 -6 -6 -8.5t-7 -6.5q-3 -4 -6.5 -7t-5.5 -7q-2 -6 -4.5 -9.5t-2.5 -10.5q-6 -9 -6 -21q0 -6 3 -14.5t6 -15.5q4 -15 16 -25q7 -15 26 -15q10 -6 29 -6h22q3 2 8 4t8 4l10 6t6 7q11 8 15 16zM74 262h158v-24
q0 -4 -1 -6q0 -3 -2 -5l-4 -4l-105 -143h1l2 2h108v-39h-164v13q0 11 2 13q0 2 5 7v4l2 4q2 2 4 3.5t2 6.5l94 129h-102v39zM1839 203q-4 -4 -7 -10.5t-7 -14.5q-2 -4 -4 -10t-2 -14q0 -7 2 -15l4 -12q2 -7 6 -14.5t8 -10.5q4 -4 9.5 -8.5t14.5 -7.5q12 -4 27 -4q5 0 10 1
t12 1q3 2 8 5t8 7q3 0 9 2h13q3 0 9 -2q2 -1 3.5 -3t3.5 -4l6 -7q-3 -4 -6 -7.5t-7 -7.5q-7 -5 -11.5 -8t-12.5 -6q-7 -4 -11.5 -5t-10.5 -3t-11 -2h-12q-12 0 -23.5 2t-21.5 4q-10 5 -18.5 12t-16.5 15q-16 13 -22 35q-4 10 -7 19.5t-3 23.5q0 10 1 14l4 14q1 7 3 14t6 11
q6 8 8.5 13t9.5 11q14 9 25 19q4 2 9.5 4t18.5 6q5 0 12 1t15 1h13q4 0 10 -2t10.5 -3t11.5 -3q8 -4 12.5 -6.5t11.5 -7.5l13 -17l-6 -8q-2 -1 -5 -4l-2 -4h-15q-7 0 -16 4l-16 10q-10 2 -12 2h-10q-17 0 -27 -7q-17 -1 -24 -13zM1690 151l7 -10.5t3 -7.5q6 -8 6 -20
q0 -15 -8 -29l-8 -12l-9 -10q-7 -6 -11.5 -9.5t-12.5 -5.5q-5 -2 -14 -3t-15 -1q-8 0 -14.5 1l-19.5 3q-5 2 -10 6.5t-11 13.5q-4 1 -6 5l-4 8q-7 2 -7 9l7 5q2 2 4 2h4l2 2h10q4 0 4 -2q7 0 9 -2q7 -5 10.5 -6.5t5.5 -3.5q2 0 6 -1t10 -1h5q2 0 6 2q5 1 8 2t7 3q6 6 7 9
q2 4 4 7.5t2 7.5q0 7 -6 10q-5 6 -7 6q-2 4 -7.5 5t-7.5 2q-6 0 -14 7q-5 0 -9 1t-9 7q-11 3 -14.5 6t-7.5 7q-12 4 -12 14q-6 10 -6 25q0 18 6 26l6 11l8 10q4 2 10 4t13 6q6 0 10.5 1t13.5 1q4 0 8.5 -1t11.5 -1l15 -6q3 -4 6.5 -6.5t7.5 -7.5q4 -2 7.5 -5.5t3.5 -7.5
l-7 -4q-4 -2 -7 -4.5t-3 -3.5h-18l-5 1l-7 5q-2 0 -4 1t-4 1h-17q-2 0 -3 -1t-5 -3q-2 -3 -6 -6q-1 -3 -1 -10q0 -5 1 -5q2 -2 3 -5.5t3 -7.5h6q1 0 5 -2q5 -1 9.5 -3t10.5 -4l9 -2q5 -4 9 -5t9 -5q5 -2 10 -5t8 -8zM1579 336q-12 7 -16 20q-7 17 -7 31v16l11 20l12 13
q6 7 12 9q3 7 9.5 8t9.5 3q4 0 8 1.5t10 1.5q4 0 10.5 -1.5t10.5 -1.5q5 -2 8.5 -3t7.5 -8q2 -2 5.5 -4.5t6.5 -4.5l13 -13l8 -20q0 -4 1 -9t1 -7q0 -6 -1 -14t-5 -17q-5 -13 -17 -20q-5 -4 -9.5 -7.5t-11.5 -10.5q-5 -1 -12 -1.5t-16 -0.5h-15q-4 0 -10 2q-18 7 -24 18z
M2284 336q-7 -4 -13.5 -7.5t-11.5 -10.5q-8 -2 -12 -2h-30q-5 0 -13 2q-7 4 -12.5 8.5t-10.5 9.5q-6 6 -13 20q-2 9 -4.5 17t-2.5 14q0 2 1 7t1 9q3 5 4 10t4 10q2 3 5 6t5 7q6 4 18 9q3 7 8 8t7 3q6 0 9 1.5t10 1.5q2 0 8.5 -1.5t11.5 -1.5q4 -2 7.5 -3t6.5 -8l17 -9
q2 -4 4 -7t5 -6q2 -5 4 -9.5t3 -10.5q2 -4 3 -9t1 -7q0 -6 -1 -14t-5 -17q0 -6 -5 -11zM2166 127q5 12 5 27q0 16 -5 24q-3 9 -8 15.5t-8 9.5q-10 10 -24 13q-4 5 -12 6t-17 1q-12 0 -25 -7q-8 -1 -13 -4t-11 -9q-4 -3 -7.5 -9.5t-8.5 -15.5q0 -4 -1 -10t-1 -14q0 -9 1 -15
t1 -12q4 -8 8 -14t8 -11q6 -4 11 -8.5t13 -7.5q7 -2 14 -3t11 -1q9 0 17 1t12 3q8 3 14 7.5t10 8.5q11 11 16 25zM1104 127q4 11 4 27q0 13 -4 24q-2 9 -6.5 15.5t-13.5 9.5q-2 6 -7.5 9t-11.5 4q-11 7 -30 7q-14 0 -25 -7q-11 -1 -23 -13q-6 -3 -9 -9.5t-5 -15.5
q-5 -5 -5 -10v-29q0 -5 5 -12q2 -7 5 -14.5t9 -10.5q6 -4 11 -8.5t12 -7.5q11 -4 25 -4q19 0 30 4q13 7 19 16q9 3 13.5 10.5t6.5 14.5zM774 262h139v-39h-100v-55h82v-39h-82v-86h-39v219zM570 223h-58v-180h-43v180h-62v39h163v-39zM1188 864q-19 7 -37 19t-35 26h322
q-18 -14 -36 -26t-36 -19q-24 -6 -45.5 -11t-44.5 -5q-25 0 -45.5 5t-42.5 11zM1389 262h165v-39h-65v-180h-39v180h-61v39zM1366 1315q18 -8 36 -20.5t36 -22.5h-325q38 30 75 43q37 18 88 18q48 0 90 -18zM559 604l-47 68q4 0 11 4q8 5 9 10q9 5 9 11v26q0 1 -2 5
q-3 10 -11 15q-5 9 -14 9q-2 5 -6.5 6t-9.5 1h-57v-155h24v64h23l40 -56q1 -4 8 -6q2 -2 3 -2h20zM1169 604l-67 155h-22l-65 -155h11q7 0 9 2q0 2 7 6l11 27h76l13 -27q1 -4 5 -6q2 -2 8 -2h14zM1930 721q3 -2 8 -7.5t6 -12.5q4 -7 4 -21q0 -12 -4 -23q-1 -5 -6 -9.5
t-8 -6.5q-5 -4 -9 -6.5t-8 -7.5q-9 -4 -23 -4q-6 0 -12 1t-10 3q-5 5 -10.5 7.5t-9.5 6.5q-3 2 -6 6.5t-3 9.5q-4 7 -5 12t-1 11q0 10 6 21q0 7 3 12.5t6 7.5q4 4 9.5 7t10.5 5q9 4 22 4q5 0 11.5 -1t11.5 -3zM801 721q7 -2 9.5 -7.5t4.5 -12.5q4 -7 4 -21q0 -11 -4 -23
q-2 -5 -4.5 -9.5t-9.5 -6.5q-1 -4 -6 -7l-11 -7q-9 -4 -22 -4q-11 0 -23 4q-4 5 -9 7.5t-9 6.5q-2 2 -5.5 6.5t-5.5 9.5q-4 12 -4 23q0 12 4 21q2 7 5.5 12.5t5.5 7.5q4 4 9 7t9 5q5 2 12.5 3t10.5 1q13 0 22 -4q8 -2 11.5 -5t5.5 -7zM2126 759h-22v-120q-1 2 -2 5t-3 4
l-75 104l-3 7h-24v-155h22v121l2 -2l87 -119h18v155zM2218 332h31l6 3q3 3 4 5q6 0 14 5q2 5 3 7t4 4q0 3 3 8t3 10v34q-3 6 -7 10.5t-6 7.5q-10 4 -18 12h-43q-6 -4 -9.5 -7t-9.5 -5q-5 -3 -7.5 -7.5t-4.5 -10.5q-1 -4 -1.5 -7t-0.5 -7v-20q0 -13 5 -18q2 -2 4.5 -4t4.5 -7
l7 -3q2 -2 4 -2q4 -4 7 -5t7 -3zM296 690q5 12 5 20q0 9 -5 18q0 2 -5 7l-6 6q-2 3 -5 7t-10 4q-3 5 -8.5 6t-9.5 1h-52v-155h16v59h36q4 0 9.5 0.5t8.5 2.5q10 4 15 10q4 2 7.5 6t3.5 8zM1579 408q-6 -14 -6 -21v-8q0 -4 3 -5q0 -10 5 -18q0 -2 2 -4t4 -7l5 -3q2 -2 11 -2
q2 -4 5.5 -5t5.5 -3h27q6 2 9.5 3t6.5 5l6 2l4 3q2 5 4.5 7t2.5 4q3 3 4 8t3 10q0 2 1 5.5t1 7.5q0 2 -1 8t-5 13q0 6 -4 10.5t-6 7.5q-3 1 -8 6l-10 6h-42q-4 -4 -10 -7l-10 -5l-5 -8q-3 -5 -3 -10zM997 759h-18v-120l-2 4q-2 6 -2 5l-74 104q-5 0 -6 7h-25v-155h21v124h2
l2 -1v-4l86 -119h16v155zM2115 381q-5 -1 -8.5 -2t-5.5 -2l45 -61h-12l-6 2q-4 0 -4 9l-39 50h-28v-61h-15v140h57q3 0 9 -2q2 -2 6.5 -5.5t5.5 -5.5q4 -2 5 -5.5t7 -7.5v-27q-4 -4 -5 -8t-3 -6zM1342 381q-3 -3 -11 -4l47 -61h-15q-3 0 -3 2q-6 0 -6 9l-39 50h-28v-61h-13
v140h56q2 0 6 -2q10 -1 18 -11q0 -2 3 -5.5t3 -7.5q2 -2 2 -6v-14q0 -1 -2 -7q0 -10 -4 -14l-5 -4q-3 -3 -9 -4zM412 759h-98v-155h98v21h-74v47h58v18h-58v45h74v24zM1721 759h-93v-155h93v21h-69v47h58v18h-58v45h69v24zM2460 454q6 2 5 2h13v-140h-12v114l-2 -2v-2
q-4 -8 -6.5 -17.5t-8.5 -14.5q-5 -7 -7 -12.5t-7 -14.5q-2 -9 -3 -15.5t-5 -9.5q-3 -8 -6.5 -12.5t-5.5 -13.5h-15q-10 14 -15 27t-10 28q-4 12 -12 26.5t-12 28.5v2h-4v-112h-14v140h14q4 0 6 -2l2 -2v-7l49 -105q0 -4 2 -4l1 2v4q0 2 8 6l41 97q2 7 3 7t1 2zM1480 759h-22
v-104q0 -4 -2 -8q-1 -7 -10 -12q0 -2 -4 -3.5t-6 -6.5l-9 -2h-9q-7 0 -13 2q-5 5 -8.5 6.5t-5.5 3.5l-11 12q0 3 -1 7.5t-1 11.5v93h-20v-93q0 -7 1 -11.5t1 -7.5q0 -8 6 -14q3 -8 10 -12q2 -4 4.5 -6.5t8.5 -4.5q2 -2 6.5 -3t7.5 -3q4 0 7 -1.5t8 -1.5t8.5 1.5t11.5 1.5
q2 2 5 3t7 3q3 2 6 4.5t6 6.5q3 2 5 5.5t7 6.5q0 4 3 7t3 7v112zM664 632q2 5 3 8t1 8q0 12 -5.5 20t-12.5 14q-2 0 -3.5 2t-5.5 4l-4 2h-4q-1 0 -1 4q-8 0 -9 1q-8 2 -9.5 3t-5.5 3q-6 5 -9 5q-3 4 -3 6v15q0 1 1.5 2.5t1.5 3.5q2 0 4.5 1t4.5 1q6 2 5 2h10q2 -2 4 -2
q7 0 8 -4q1 -3 4 -3h2q9 0 14 5l4 2q0 2 -2 4l-5 4q-2 1 -4.5 4t-6.5 5q-2 0 -4 2.5t-5 4.5q-5 0 -7 0.5t-4 0.5q-7 0 -12 -0.5t-8 -0.5q-5 -2 -7 -4.5t-6 -4.5q-2 -6 -5.5 -8.5t-8.5 -6.5q0 -4 -2 -7t-2 -9t4 -18l12 -11q2 -2 6 -5t7 -3q5 -2 8 -4t7 -2q1 -2 6 -2t7 -2
l6 -2q2 0 4 -2t2 -3t2 -6q2 -2 2 -7v-9q0 -2 -2 -4t-2 -4t-2 -3q-2 -5 -6 -6l-4 -1q-4 0 -8 -1t-5 -1q-4 0 -7 1t-6 1q-2 0 -3.5 1t-1.5 6l-4 1q-4 4 -11 4h-7l-4 -2l-5 -2q0 -3 3 -3q0 -3 2 -5q0 -4 4 -4v-6h5q7 -7 16 -9t19 -2h10q5 0 11 2q4 2 8.5 4t6.5 5q13 5 14 17z
M1741 316h-18v140h20q3 0 4 -4l74 -104q2 0 2 -5l2 -1v114h14v-140h-12l-82 114v4h-4v-118zM1596 632q9 7 9 16q0 12 -5.5 20t-12.5 14q-6 4 -6 6h-4l-4 2h-3q-4 0 -5 4h-4q-2 0 -5 1q-2 2 -4 3t-7 3l-7 5q-2 1 -3 2l-2 2l-1 2q0 1 -1 3t-1 4q0 4 4 8q0 2 4 6q2 0 3 1t4 1
q2 2 11 2l4 -1q2 -1 5 -1q3 -3 8 -4q6 -3 8 -3q6 0 8 5l5 2q0 2 -2.5 4t-4.5 4q0 1 -3 4l-5 5q-3 0 -5.5 2.5t-6.5 4.5h-6l-5 1q-6 0 -10 -0.5t-8 -0.5l-13 -9q-5 -6 -7 -8.5t-6 -6.5q-1 -4 -3 -7t-2 -9q0 -4 2 -7.5t3 -10.5l10 -11q5 -2 7.5 -5t6.5 -3q4 -2 7.5 -4t6.5 -2
q4 -2 7 -2t6 -2q6 0 10 -4l4 -3q2 -2 2 -6q2 -2 2 -6v-9q0 -3 -2 -5q0 -6 -6 -7q-6 -5 -7 -6t-3 -1q-7 0 -8 -1t-5 -1q-3 0 -6.5 1t-5.5 1q-2 1 -4 3l-4 4l-2 1q-5 4 -10 4h-7q-2 0 -4 -2l-6 -2q2 -1 2 -2t2 -1q0 -3 1 -4l3 -3v-2q6 -6 9 -6q7 -7 14.5 -9t17.5 -2h12
q3 0 11 2q3 2 6.5 4t7.5 5l5 8q3 3 4 9zM78 350q-6 6 -7 17l-3 10q-1 3 -1 10t4 16l2 10t5 10l4 6l5 7q2 2 6.5 4.5t6.5 4.5q6 7 11 8t9 3q3 0 8 1.5t10 1.5q7 0 14.5 -1.5t13.5 -5.5q8 -2 12.5 -6.5t8.5 -9.5q-2 -2 -4 -2v-4h-13q-4 2 -7 5t-7 3h-36l-22 -12
q-4 -3 -7.5 -7.5t-4.5 -10.5q-2 -7 -3 -13t-1 -8q0 -9 4 -13q0 -5 0.5 -10t0.5 -8l5 -4q4 -1 6 -7l7 -4q3 -1 8 -1q3 -4 5.5 -5t6.5 -3h33q2 2 7 3t9 5v29h-14v2q-2 0 -3 1.5t-3 3.5h-2q-1 1 -1 3v4h36v-51q-2 -5 -3.5 -6t-5.5 -8h-12q-8 -2 -12 -2h-34q-4 0 -9 3.5t-11 7.5
q-2 0 -6.5 2.5t-6.5 6.5q-3 4 -5 6.5t-4 7.5zM240 438v-44h56v-15h-56v-47h67v-16h-84v140h84v-18h-67zM1171 438v-44h60v-15h-60v-47h68v-16h-84v140h84v-18h-68zM2375 759h-20q-3 0 -8 -5q-6 -5 -6 -10l-37 -47h-2q0 -2 -2 -2v2l-39 47q-1 7 -4 10q-5 5 -11 5h-18l58 -77
v-2q0 -2 2 -2l2 -2v-72h21v70q2 0 2 2l2 4v2zM641 456v-85q0 -7 2 -10t5 -5q0 -6 3.5 -9.5t5.5 -4.5q0 -2 4.5 -4t6.5 -4q6 -2 8 -2h16q1 0 5 2l9 4q2 1 3.5 2t3.5 2q3 1 8 14q4 3 4 15v85h14v-85q0 -12 -4 -23t-12 -16q-2 -5 -6.5 -9.5t-8.5 -4.5q-8 -1 -13.5 -1.5
t-10.5 -0.5t-11 0.5t-14 1.5q-2 0 -6.5 4.5l-9.5 9.5l-10 16q-1 6 -3.5 11t-2.5 12v85h14zM2253 625h-69v134h-21v-155h90v21zM1271 625h-67v134h-20v-155h87v21zM1452 336q1 2 2 3.5t2 3.5q2 2 3 6.5t1 6.5q0 9 -2 11t-3 4.5t-3 4.5q-1 1 -8 3q-4 0 -6 2t-6 2q-8 0 -14 6
q-9 0 -13 7q-2 0 -3.5 3.5t-3.5 7.5v22q0 1 2 7q0 8 7 9l6 7q2 1 3.5 2t3.5 2q5 0 7.5 1.5t8.5 1.5l6 -2l4 -1q4 0 5 -1t5 -3q2 0 4 -3.5t2 -5.5q4 0 6 -3l1 -2l-2 -2q-6 -2 -9 -2h-6q-2 2 -2 4h-23q-9 0 -9 -2q-5 -7 -5 -8q-4 0 -4 -8q0 -5 4 -6q0 -5 3 -6q0 -1 3 -4l4 -1
q4 -4 7.5 -4t7.5 -3q3 0 4 -1l2 -1q4 0 8 -5h4q2 0 4 -2h2q5 -4 8.5 -7t5.5 -4q1 -5 1.5 -10.5t0.5 -9.5v-10q0 -5 -4 -6q-3 -4 -5.5 -7.5t-6.5 -5.5q-2 -2 -6 -5.5t-6 -3.5q-6 -2 -10 -2h-9q-11 0 -18.5 1t-12.5 10q-2 0 -3.5 2.5t-5.5 4.5v4l-2 2l4 2h7q1 0 3 -1t4 -1
q4 -4 6.5 -5t4.5 -3h22q8 0 12 4zM1069 316l-59 140h6q6 0 8 -2t3 -2t3 -7l43 -103v-2l2 -6v6l2 2q5 14 13 27.5t12 24.5q4 16 10 28t12 23q0 7 1.5 7t1.5 2q6 2 7 2h11q-8 -18 -15.5 -35t-16.5 -34q-4 -9 -7 -18.5t-6 -18.5l-16 -34h-15zM532 438v-49h60v-12h-60v-61h-16
v140h85v-18h-69zM1959 438v-49h54v-12h-54v-61h-16v140h81v-18h-65zM879 456v-124h63v-16h-80v140h17zM371 316v122h-46v18h105v-18h-47v-122h-12zM784 456v-124h64v-16h-80v140h16zM270 728q2 -1 3 -4t3 -5q4 -4 4 -9v-4q0 -5 -4 -9q-2 -2 -3 -4.5t-3 -2.5l-4 -4l-4 -4h-46
v53h36q4 0 10 -2q1 0 4 -3zM1325 389q4 0 6 3q4 4 9 4l2 5q0 2 5 6q0 1 1 4t1 7q0 2 -1 3.5t-1 4.5q-7 3 -7 8q-5 0 -9 4h-44v-49h38zM2101 392q4 4 7 4q7 7 7 11q2 4 2 11q0 4 -2 8q0 2 -7 8q-3 0 -7 4h-44v-49h36q3 0 8 3zM1525 456v-140h-18v140h18zM518 701l-4 -7
q-2 0 -3 -2t-3 -2q-2 -2 -10 -2h-33v47h33q4 0 10 -2q2 0 6 -5q1 -2 2 -3.5t2 -3.5q3 -2 3 -9q0 -5 -3 -11zM684 129l-27 69q0 2 -1 3l-1 2q0 4 -3 6v-6l-1 -2q-1 -1 -1 -3l-27 -69h61zM1093 727v-4l27 -64h-59l30 64v5zM1755 82q6 0 6 -6q2 -2 2 -5v-4q0 -9 -2 -11
q0 -5 -6 -9q-3 0 -6 -4h-17q-4 4 -11 4q0 2 -5 9q-2 2 -2 11v4q0 3 2 5l3 4l2 2q7 4 11 4q1 3 4 3h10q3 0 3 -3q3 0 6 -4z" />
    <glyph glyph-name="eight" unicode="8" 
d="M2478 1093v-587h-2404v587h910q0 30 5.5 58t20.5 53q12 29 26 52.5t37 41.5q39 42 91 62q28 12 55.5 17t56.5 5q33 0 61.5 -6.5t53.5 -15.5q27 -14 50.5 -29.5t45.5 -36.5q35 -38 60 -94q11 -27 15.5 -54t4.5 -53h911zM1030 1194q-20 -49 -20 -101q0 -58 20 -106
q10 -22 24.5 -43.5t29.5 -42.5q20 -17 41.5 -32t45.5 -25q46 -23 105 -23q31 0 56.5 4.5t47.5 16.5q48 19 83 57q22 20 35.5 41t26.5 43q20 54 20 110q0 20 -3.5 43.5t-11.5 47.5q-14 40 -43 72q-14 20 -29.5 33.5t-34.5 25.5l-76 36q-16 3 -33 6t-38 3q-29 0 -55.5 -5.5
t-51.5 -19.5q-50 -19 -85 -57q-17 -19 -30.5 -39.5t-23.5 -44.5zM1142 936l314 317q62 -80 62 -160q0 -24 -3.5 -45.5t-11.5 -41.5q-8 -19 -17.5 -37t-23.5 -33h-320zM1095 928q-14 17 -25 36.5t-19 39.5q-9 18 -12.5 40.5t-3.5 48.5q0 18 3.5 39t12.5 43q7 35 40 68h318z
M1135 207q2 -4 4.5 -11t5.5 -14q2 -10 2 -14v-32q0 -5 -2 -11l-6 -15l-4 -14q-6 -4 -10.5 -10t-8.5 -10q-6 -5 -11 -10.5t-10 -9.5q-9 -5 -15.5 -7t-12.5 -4q-10 -2 -15 -2h-17q-9 0 -19 2t-23 4q-12 6 -18.5 13t-17.5 14q-15 14 -21 35q-4 10 -6 19.5t-2 23.5v14q0 4 2 14
q4 17 12 25q4 8 7.5 13t7.5 11q9 5 13.5 9.5t10.5 9.5l12 4l17 6q5 0 11.5 1t13.5 1q10 0 17 -1t15 -1q6 -4 12.5 -6t15.5 -4q5 -5 10 -9.5t11 -9.5q4 -6 8.5 -11t10.5 -13zM2195 207q4 -4 6.5 -11t4.5 -14q4 -7 4 -14v-32q0 -7 -4 -11q-2 -7 -4.5 -15t-6.5 -14l-16 -20
l-12 -10l-14 -10q-5 -5 -12 -7t-13 -4q-8 -2 -14 -2h-17q-19 0 -43 6q-8 6 -16 13t-17 14q-8 6 -14 14t-8 21q-6 10 -7.5 19.5t-1.5 23.5q0 8 1 14t1 14l6 14t7 11q2 8 6 13t10 11q3 5 10.5 9.5t12.5 9.5q4 2 11 4t13 6q11 0 17 1t12 1q9 0 17 -1t14 -1q6 -4 13 -6t12 -4
l26 -19q2 -6 8 -11t8 -13zM2433 260l1 1q1 1 6 1h38v-219h-38v160l-5 -9v-8q0 -2 -2 -4q-6 -16 -13 -34.5t-16 -31.5q-6 -20 -12 -36.5t-14 -36.5h-37l-55 139q-6 3 -6 12q0 4 -1 4l-2 2v-157h-42v219h40q5 0 6.5 -1t4.5 -1q2 -2 3 -2t4 -2l7 -4q0 -2 2 -3.5t2 -3.5
q4 -18 11 -32.5t16 -34.5l12 -33q3 -8 6 -15l6 -14v-14q3 0 4 -4q0 4 1 4v14l11 13l44 116q0 1 2 3l2 4q0 1 3 3l3 1q2 2 4 2t4 2zM1329 262h38v-219h-36l-100 146l-4 5v2q-3 4 -3 5q-4 1 -4 4q0 4 -7 4v-166h-37v219h33q4 0 9.5 -1t5.5 -3q3 -2 5 -2t4 -2l22 -33
q6 -8 11 -16.5t10 -19.5q13 -13 24 -29t25 -29q0 -2 1 -4.5t1 -6.5l1 -3q0 -2 1 -3v152zM672 262l94 -219h-25q-9 0 -16 4q-2 2 -4 6.5t-6 8.5l-14 27h-100l-9 -27q0 -6 -4 -6q-2 -5 -4 -5l-3 -4q-2 0 -4.5 -1t-6.5 -1q0 -2 -2 -2h-27l96 219h35zM260 262h139v-39h-100v-49
h82v-41h-82v-51h100v-39h-139v219zM839 659q1 7 2 11t1 10q0 12 -3 21q0 7 -4.5 10.5t-6.5 9.5q-2 3 -4.5 6.5t-6.5 7.5l-7 6q-2 3 -9 9q-4 2 -8 4.5t-11 4.5q-5 0 -9.5 0.5t-10.5 0.5q-3 0 -8.5 -0.5t-12.5 -0.5q-6 -2 -10 -4.5t-8 -4.5q-4 -6 -7.5 -8.5t-7.5 -6.5
q-13 -7 -14 -14q-4 -6 -5 -9.5l-3 -10.5q-1 -5 -1.5 -10t-0.5 -11t2 -14.5t4 -15.5t6.5 -12.5t11.5 -12.5q10 -15 25 -15q10 -6 29 -6h20q15 5 19 8q11 4 16 13q3 4 6 7.5t5 8.5q2 4 6.5 9t4.5 9zM1966 659v42l-7 20q-5 7 -15 14q-1 4 -6 6.5t-10 8.5l-4 2t-5 2l-7 5
q-7 0 -12 0.5t-10 0.5q-6 0 -11 -0.5t-9 -0.5l-22 -9q-3 -6 -6 -8.5t-7 -6.5q-3 -4 -6.5 -7t-5.5 -7q-2 -6 -4.5 -9.5t-2.5 -10.5q-6 -9 -6 -21q0 -6 3 -14.5t6 -15.5q4 -15 16 -25q7 -15 26 -15q10 -6 29 -6h22q3 2 8 4t8 4l10 6t6 7q11 8 15 16zM74 262h158v-24
q0 -4 -1 -6q0 -3 -2 -5l-4 -4l-105 -143h1l2 2h108v-39h-164v13q0 11 2 13q0 2 5 7v4l2 4q2 2 4 3.5t2 6.5l94 129h-102v39zM1839 203q-4 -4 -7 -10.5t-7 -14.5q-2 -4 -4 -10t-2 -14q0 -7 2 -15l4 -12q2 -7 6 -14.5t8 -10.5q4 -4 9.5 -8.5t14.5 -7.5q12 -4 27 -4q5 0 10 1
t12 1q3 2 8 5t8 7q3 0 9 2h13q3 0 9 -2q2 -1 3.5 -3t3.5 -4l6 -7q-3 -4 -6 -7.5t-7 -7.5q-7 -5 -11.5 -8t-12.5 -6q-7 -4 -11.5 -5t-10.5 -3t-11 -2h-12q-12 0 -23.5 2t-21.5 4q-10 5 -18.5 12t-16.5 15q-16 13 -22 35q-4 10 -7 19.5t-3 23.5q0 10 1 14l4 14q1 7 3 14t6 11
q6 8 8.5 13t9.5 11q14 9 25 19q4 2 9.5 4t18.5 6q5 0 12 1t15 1h13q4 0 10 -2t10.5 -3t11.5 -3q8 -4 12.5 -6.5t11.5 -7.5l13 -17l-6 -8q-2 -1 -5 -4l-2 -4h-15q-7 0 -16 4l-16 10q-10 2 -12 2h-10q-17 0 -27 -7q-17 -1 -24 -13zM1690 151l7 -10.5t3 -7.5q6 -8 6 -20
q0 -15 -8 -29l-8 -12l-9 -10q-7 -6 -11.5 -9.5t-12.5 -5.5q-5 -2 -14 -3t-15 -1q-8 0 -14.5 1l-19.5 3q-5 2 -10 6.5t-11 13.5q-4 1 -6 5l-4 8q-7 2 -7 9l7 5q2 2 4 2h4l2 2h10q4 0 4 -2q7 0 9 -2q7 -5 10.5 -6.5t5.5 -3.5q2 0 6 -1t10 -1h5q2 0 6 2q5 1 8 2t7 3q6 6 7 9
q2 4 4 7.5t2 7.5q0 7 -6 10q-5 6 -7 6q-2 4 -7.5 5t-7.5 2q-6 0 -14 7q-5 0 -9 1t-9 7q-11 3 -14.5 6t-7.5 7q-12 4 -12 14q-6 10 -6 25q0 18 6 26l6 11l8 10q4 2 10 4t13 6q6 0 10.5 1t13.5 1q4 0 8.5 -1t11.5 -1l15 -6q3 -4 6.5 -6.5t7.5 -7.5q4 -2 7.5 -5.5t3.5 -7.5
l-7 -4q-4 -2 -7 -4.5t-3 -3.5h-18l-5 1l-7 5q-2 0 -4 1t-4 1h-17q-2 0 -3 -1t-5 -3q-2 -3 -6 -6q-1 -3 -1 -10q0 -5 1 -5q2 -2 3 -5.5t3 -7.5h6q1 0 5 -2q5 -1 9.5 -3t10.5 -4l9 -2q5 -4 9 -5t9 -5q5 -2 10 -5t8 -8zM1579 336q-12 7 -16 20q-7 17 -7 31v16l11 20l12 13
q6 7 12 9q3 7 9.5 8t9.5 3q4 0 8 1.5t10 1.5q4 0 10.5 -1.5t10.5 -1.5q5 -2 8.5 -3t7.5 -8q2 -2 5.5 -4.5t6.5 -4.5l13 -13l8 -20q0 -4 1 -9t1 -7q0 -6 -1 -14t-5 -17q-5 -13 -17 -20q-5 -4 -9.5 -7.5t-11.5 -10.5q-5 -1 -12 -1.5t-16 -0.5h-15q-4 0 -10 2q-18 7 -24 18z
M2284 336q-7 -4 -13.5 -7.5t-11.5 -10.5q-8 -2 -12 -2h-30q-5 0 -13 2q-7 4 -12.5 8.5t-10.5 9.5q-6 6 -13 20q-2 9 -4.5 17t-2.5 14q0 2 1 7t1 9q3 5 4 10t4 10q2 3 5 6t5 7q6 4 18 9q3 7 8 8t7 3q6 0 9 1.5t10 1.5q2 0 8.5 -1.5t11.5 -1.5q4 -2 7.5 -3t6.5 -8l17 -9
q2 -4 4 -7t5 -6q2 -5 4 -9.5t3 -10.5q2 -4 3 -9t1 -7q0 -6 -1 -14t-5 -17q0 -6 -5 -11zM2166 127q5 12 5 27q0 16 -5 24q-3 9 -8 15.5t-8 9.5q-10 10 -24 13q-4 5 -12 6t-17 1q-12 0 -25 -7q-8 -1 -13 -4t-11 -9q-4 -3 -7.5 -9.5t-8.5 -15.5q0 -4 -1 -10t-1 -14q0 -9 1 -15
t1 -12q4 -8 8 -14t8 -11q6 -4 11 -8.5t13 -7.5q7 -2 14 -3t11 -1q9 0 17 1t12 3q8 3 14 7.5t10 8.5q11 11 16 25zM1104 127q4 11 4 27q0 13 -4 24q-2 9 -6.5 15.5t-13.5 9.5q-2 6 -7.5 9t-11.5 4q-11 7 -30 7q-14 0 -25 -7q-11 -1 -23 -13q-6 -3 -9 -9.5t-5 -15.5
q-5 -5 -5 -10v-29q0 -5 5 -12q2 -7 5 -14.5t9 -10.5q6 -4 11 -8.5t12 -7.5q11 -4 25 -4q19 0 30 4q13 7 19 16q9 3 13.5 10.5t6.5 14.5zM774 262h139v-39h-100v-55h82v-39h-82v-86h-39v219zM570 223h-58v-180h-43v180h-62v39h163v-39zM1188 864q-19 7 -37 19t-35 26h322
q-18 -14 -36 -26t-36 -19q-24 -6 -45.5 -11t-44.5 -5q-25 0 -45.5 5t-42.5 11zM1389 262h165v-39h-65v-180h-39v180h-61v39zM1366 1315q18 -8 36 -20.5t36 -22.5h-325q38 30 75 43q37 18 88 18q48 0 90 -18zM559 604l-47 68q4 0 11 4q8 5 9 10q9 5 9 11v26q0 1 -2 5
q-3 10 -11 15q-5 9 -14 9q-2 5 -6.5 6t-9.5 1h-57v-155h24v64h23l40 -56q1 -4 8 -6q2 -2 3 -2h20zM1169 604l-67 155h-22l-65 -155h11q7 0 9 2q0 2 7 6l11 27h76l13 -27q1 -4 5 -6q2 -2 8 -2h14zM1930 721q3 -2 8 -7.5t6 -12.5q4 -7 4 -21q0 -12 -4 -23q-1 -5 -6 -9.5
t-8 -6.5q-5 -4 -9 -6.5t-8 -7.5q-9 -4 -23 -4q-6 0 -12 1t-10 3q-5 5 -10.5 7.5t-9.5 6.5q-3 2 -6 6.5t-3 9.5q-4 7 -5 12t-1 11q0 10 6 21q0 7 3 12.5t6 7.5q4 4 9.5 7t10.5 5q9 4 22 4q5 0 11.5 -1t11.5 -3zM801 721q7 -2 9.5 -7.5t4.5 -12.5q4 -7 4 -21q0 -11 -4 -23
q-2 -5 -4.5 -9.5t-9.5 -6.5q-1 -4 -6 -7l-11 -7q-9 -4 -22 -4q-11 0 -23 4q-4 5 -9 7.5t-9 6.5q-2 2 -5.5 6.5t-5.5 9.5q-4 12 -4 23q0 12 4 21q2 7 5.5 12.5t5.5 7.5q4 4 9 7t9 5q5 2 12.5 3t10.5 1q13 0 22 -4q8 -2 11.5 -5t5.5 -7zM2126 759h-22v-120q-1 2 -2 5t-3 4
l-75 104l-3 7h-24v-155h22v121l2 -2l87 -119h18v155zM2218 332h31l6 3q3 3 4 5q6 0 14 5q2 5 3 7t4 4q0 3 3 8t3 10v34q-3 6 -7 10.5t-6 7.5q-10 4 -18 12h-43q-6 -4 -9.5 -7t-9.5 -5q-5 -3 -7.5 -7.5t-4.5 -10.5q-1 -4 -1.5 -7t-0.5 -7v-20q0 -13 5 -18q2 -2 4.5 -4t4.5 -7
l7 -3q2 -2 4 -2q4 -4 7 -5t7 -3zM296 690q5 12 5 20q0 9 -5 18q0 2 -5 7l-6 6q-2 3 -5 7t-10 4q-3 5 -8.5 6t-9.5 1h-52v-155h16v59h36q4 0 9.5 0.5t8.5 2.5q10 4 15 10q4 2 7.5 6t3.5 8zM1579 408q-6 -14 -6 -21v-8q0 -4 3 -5q0 -10 5 -18q0 -2 2 -4t4 -7l5 -3q2 -2 11 -2
q2 -4 5.5 -5t5.5 -3h27q6 2 9.5 3t6.5 5l6 2l4 3q2 5 4.5 7t2.5 4q3 3 4 8t3 10q0 2 1 5.5t1 7.5q0 2 -1 8t-5 13q0 6 -4 10.5t-6 7.5q-3 1 -8 6l-10 6h-42q-4 -4 -10 -7l-10 -5l-5 -8q-3 -5 -3 -10zM997 759h-18v-120l-2 4q-2 6 -2 5l-74 104q-5 0 -6 7h-25v-155h21v124h2
l2 -1v-4l86 -119h16v155zM2115 381q-5 -1 -8.5 -2t-5.5 -2l45 -61h-12l-6 2q-4 0 -4 9l-39 50h-28v-61h-15v140h57q3 0 9 -2q2 -2 6.5 -5.5t5.5 -5.5q4 -2 5 -5.5t7 -7.5v-27q-4 -4 -5 -8t-3 -6zM1342 381q-3 -3 -11 -4l47 -61h-15q-3 0 -3 2q-6 0 -6 9l-39 50h-28v-61h-13
v140h56q2 0 6 -2q10 -1 18 -11q0 -2 3 -5.5t3 -7.5q2 -2 2 -6v-14q0 -1 -2 -7q0 -10 -4 -14l-5 -4q-3 -3 -9 -4zM412 759h-98v-155h98v21h-74v47h58v18h-58v45h74v24zM1721 759h-93v-155h93v21h-69v47h58v18h-58v45h69v24zM2460 454q6 2 5 2h13v-140h-12v114l-2 -2v-2
q-4 -8 -6.5 -17.5t-8.5 -14.5q-5 -7 -7 -12.5t-7 -14.5q-2 -9 -3 -15.5t-5 -9.5q-3 -8 -6.5 -12.5t-5.5 -13.5h-15q-10 14 -15 27t-10 28q-4 12 -12 26.5t-12 28.5v2h-4v-112h-14v140h14q4 0 6 -2l2 -2v-7l49 -105q0 -4 2 -4l1 2v4q0 2 8 6l41 97q2 7 3 7t1 2zM1480 759h-22
v-104q0 -4 -2 -8q-1 -7 -10 -12q0 -2 -4 -3.5t-6 -6.5l-9 -2h-9q-7 0 -13 2q-5 5 -8.5 6.5t-5.5 3.5l-11 12q0 3 -1 7.5t-1 11.5v93h-20v-93q0 -7 1 -11.5t1 -7.5q0 -8 6 -14q3 -8 10 -12q2 -4 4.5 -6.5t8.5 -4.5q2 -2 6.5 -3t7.5 -3q4 0 7 -1.5t8 -1.5t8.5 1.5t11.5 1.5
q2 2 5 3t7 3q3 2 6 4.5t6 6.5q3 2 5 5.5t7 6.5q0 4 3 7t3 7v112zM664 632q2 5 3 8t1 8q0 12 -5.5 20t-12.5 14q-2 0 -3.5 2t-5.5 4l-4 2h-4q-1 0 -1 4q-8 0 -9 1q-8 2 -9.5 3t-5.5 3q-6 5 -9 5q-3 4 -3 6v15q0 1 1.5 2.5t1.5 3.5q2 0 4.5 1t4.5 1q6 2 5 2h10q2 -2 4 -2
q7 0 8 -4q1 -3 4 -3h2q9 0 14 5l4 2q0 2 -2 4l-5 4q-2 1 -4.5 4t-6.5 5q-2 0 -4 2.5t-5 4.5q-5 0 -7 0.5t-4 0.5q-7 0 -12 -0.5t-8 -0.5q-5 -2 -7 -4.5t-6 -4.5q-2 -6 -5.5 -8.5t-8.5 -6.5q0 -4 -2 -7t-2 -9t4 -18l12 -11q2 -2 6 -5t7 -3q5 -2 8 -4t7 -2q1 -2 6 -2t7 -2
l6 -2q2 0 4 -2t2 -3t2 -6q2 -2 2 -7v-9q0 -2 -2 -4t-2 -4t-2 -3q-2 -5 -6 -6l-4 -1q-4 0 -8 -1t-5 -1q-4 0 -7 1t-6 1q-2 0 -3.5 1t-1.5 6l-4 1q-4 4 -11 4h-7l-4 -2l-5 -2q0 -3 3 -3q0 -3 2 -5q0 -4 4 -4v-6h5q7 -7 16 -9t19 -2h10q5 0 11 2q4 2 8.5 4t6.5 5q13 5 14 17z
M1741 316h-18v140h20q3 0 4 -4l74 -104q2 0 2 -5l2 -1v114h14v-140h-12l-82 114v4h-4v-118zM1596 632q9 7 9 16q0 12 -5.5 20t-12.5 14q-6 4 -6 6h-4l-4 2h-3q-4 0 -5 4h-4q-2 0 -5 1q-2 2 -4 3t-7 3l-7 5q-2 1 -3 2l-2 2l-1 2q0 1 -1 3t-1 4q0 4 4 8q0 2 4 6q2 0 3 1t4 1
q2 2 11 2l4 -1q2 -1 5 -1q3 -3 8 -4q6 -3 8 -3q6 0 8 5l5 2q0 2 -2.5 4t-4.5 4q0 1 -3 4l-5 5q-3 0 -5.5 2.5t-6.5 4.5h-6l-5 1q-6 0 -10 -0.5t-8 -0.5l-13 -9q-5 -6 -7 -8.5t-6 -6.5q-1 -4 -3 -7t-2 -9q0 -4 2 -7.5t3 -10.5l10 -11q5 -2 7.5 -5t6.5 -3q4 -2 7.5 -4t6.5 -2
q4 -2 7 -2t6 -2q6 0 10 -4l4 -3q2 -2 2 -6q2 -2 2 -6v-9q0 -3 -2 -5q0 -6 -6 -7q-6 -5 -7 -6t-3 -1q-7 0 -8 -1t-5 -1q-3 0 -6.5 1t-5.5 1q-2 1 -4 3l-4 4l-2 1q-5 4 -10 4h-7q-2 0 -4 -2l-6 -2q2 -1 2 -2t2 -1q0 -3 1 -4l3 -3v-2q6 -6 9 -6q7 -7 14.5 -9t17.5 -2h12
q3 0 11 2q3 2 6.5 4t7.5 5l5 8q3 3 4 9zM78 350q-6 6 -7 17l-3 10q-1 3 -1 10t4 16l2 10t5 10l4 6l5 7q2 2 6.5 4.5t6.5 4.5q6 7 11 8t9 3q3 0 8 1.5t10 1.5q7 0 14.5 -1.5t13.5 -5.5q8 -2 12.5 -6.5t8.5 -9.5q-2 -2 -4 -2v-4h-13q-4 2 -7 5t-7 3h-36l-22 -12
q-4 -3 -7.5 -7.5t-4.5 -10.5q-2 -7 -3 -13t-1 -8q0 -9 4 -13q0 -5 0.5 -10t0.5 -8l5 -4q4 -1 6 -7l7 -4q3 -1 8 -1q3 -4 5.5 -5t6.5 -3h33q2 2 7 3t9 5v29h-14v2q-2 0 -3 1.5t-3 3.5h-2q-1 1 -1 3v4h36v-51q-2 -5 -3.5 -6t-5.5 -8h-12q-8 -2 -12 -2h-34q-4 0 -9 3.5t-11 7.5
q-2 0 -6.5 2.5t-6.5 6.5q-3 4 -5 6.5t-4 7.5zM240 438v-44h56v-15h-56v-47h67v-16h-84v140h84v-18h-67zM1171 438v-44h60v-15h-60v-47h68v-16h-84v140h84v-18h-68zM2375 759h-20q-3 0 -8 -5q-6 -5 -6 -10l-37 -47h-2q0 -2 -2 -2v2l-39 47q-1 7 -4 10q-5 5 -11 5h-18l58 -77
v-2q0 -2 2 -2l2 -2v-72h21v70q2 0 2 2l2 4v2zM641 456v-85q0 -7 2 -10t5 -5q0 -6 3.5 -9.5t5.5 -4.5q0 -2 4.5 -4t6.5 -4q6 -2 8 -2h16q1 0 5 2l9 4q2 1 3.5 2t3.5 2q3 1 8 14q4 3 4 15v85h14v-85q0 -12 -4 -23t-12 -16q-2 -5 -6.5 -9.5t-8.5 -4.5q-8 -1 -13.5 -1.5
t-10.5 -0.5t-11 0.5t-14 1.5q-2 0 -6.5 4.5l-9.5 9.5l-10 16q-1 6 -3.5 11t-2.5 12v85h14zM2253 625h-69v134h-21v-155h90v21zM1271 625h-67v134h-20v-155h87v21zM1452 336q1 2 2 3.5t2 3.5q2 2 3 6.5t1 6.5q0 9 -2 11t-3 4.5t-3 4.5q-1 1 -8 3q-4 0 -6 2t-6 2q-8 0 -14 6
q-9 0 -13 7q-2 0 -3.5 3.5t-3.5 7.5v22q0 1 2 7q0 8 7 9l6 7q2 1 3.5 2t3.5 2q5 0 7.5 1.5t8.5 1.5l6 -2l4 -1q4 0 5 -1t5 -3q2 0 4 -3.5t2 -5.5q4 0 6 -3l1 -2l-2 -2q-6 -2 -9 -2h-6q-2 2 -2 4h-23q-9 0 -9 -2q-5 -7 -5 -8q-4 0 -4 -8q0 -5 4 -6q0 -5 3 -6q0 -1 3 -4l4 -1
q4 -4 7.5 -4t7.5 -3q3 0 4 -1l2 -1q4 0 8 -5h4q2 0 4 -2h2q5 -4 8.5 -7t5.5 -4q1 -5 1.5 -10.5t0.5 -9.5v-10q0 -5 -4 -6q-3 -4 -5.5 -7.5t-6.5 -5.5q-2 -2 -6 -5.5t-6 -3.5q-6 -2 -10 -2h-9q-11 0 -18.5 1t-12.5 10q-2 0 -3.5 2.5t-5.5 4.5v4l-2 2l4 2h7q1 0 3 -1t4 -1
q4 -4 6.5 -5t4.5 -3h22q8 0 12 4zM1069 316l-59 140h6q6 0 8 -2t3 -2t3 -7l43 -103v-2l2 -6v6l2 2q5 14 13 27.5t12 24.5q4 16 10 28t12 23q0 7 1.5 7t1.5 2q6 2 7 2h11q-8 -18 -15.5 -35t-16.5 -34q-4 -9 -7 -18.5t-6 -18.5l-16 -34h-15zM532 438v-49h60v-12h-60v-61h-16
v140h85v-18h-69zM1959 438v-49h54v-12h-54v-61h-16v140h81v-18h-65zM879 456v-124h63v-16h-80v140h17zM371 316v122h-46v18h105v-18h-47v-122h-12zM784 456v-124h64v-16h-80v140h16zM270 728q2 -1 3 -4t3 -5q4 -4 4 -9v-4q0 -5 -4 -9q-2 -2 -3 -4.5t-3 -2.5l-4 -4l-4 -4h-46
v53h36q4 0 10 -2q1 0 4 -3zM1325 389q4 0 6 3q4 4 9 4l2 5q0 2 5 6q0 1 1 4t1 7q0 2 -1 3.5t-1 4.5q-7 3 -7 8q-5 0 -9 4h-44v-49h38zM2101 392q4 4 7 4q7 7 7 11q2 4 2 11q0 4 -2 8q0 2 -7 8q-3 0 -7 4h-44v-49h36q3 0 8 3zM1525 456v-140h-18v140h18zM518 701l-4 -7
q-2 0 -3 -2t-3 -2q-2 -2 -10 -2h-33v47h33q4 0 10 -2q2 0 6 -5q1 -2 2 -3.5t2 -3.5q3 -2 3 -9q0 -5 -3 -11zM684 129l-27 69q0 2 -1 3l-1 2q0 4 -3 6v-6l-1 -2q-1 -1 -1 -3l-27 -69h61zM1093 727v-4l27 -64h-59l30 64v5zM1755 82q6 0 6 -6q2 -2 2 -5v-4q0 -9 -2 -11
q0 -5 -6 -9q-3 0 -6 -4h-17q-4 4 -11 4q0 2 -5 9q-2 2 -2 11v4q0 3 2 5l3 4l2 2q7 4 11 4q1 3 4 3h10q3 0 3 -3q3 0 6 -4z" />
    <glyph glyph-name="nine" unicode="9" 
d="M2478 1093v-587h-2404v587h910q0 30 5.5 58t20.5 53q12 29 26 52.5t37 41.5q39 42 91 62q28 12 55.5 17t56.5 5q33 0 61.5 -6.5t53.5 -15.5q27 -14 50.5 -29.5t45.5 -36.5q35 -38 60 -94q11 -27 15.5 -54t4.5 -53h911zM1030 1194q-20 -49 -20 -101q0 -58 20 -106
q10 -22 24.5 -43.5t29.5 -42.5q20 -17 41.5 -32t45.5 -25q46 -23 105 -23q31 0 56.5 4.5t47.5 16.5q48 19 83 57q22 20 35.5 41t26.5 43q20 54 20 110q0 20 -3.5 43.5t-11.5 47.5q-14 40 -43 72q-14 20 -29.5 33.5t-34.5 25.5l-76 36q-16 3 -33 6t-38 3q-29 0 -55.5 -5.5
t-51.5 -19.5q-50 -19 -85 -57q-17 -19 -30.5 -39.5t-23.5 -44.5zM1142 936l314 317q62 -80 62 -160q0 -24 -3.5 -45.5t-11.5 -41.5q-8 -19 -17.5 -37t-23.5 -33h-320zM1095 928q-14 17 -25 36.5t-19 39.5q-9 18 -12.5 40.5t-3.5 48.5q0 18 3.5 39t12.5 43q7 35 40 68h318z
M1135 207q2 -4 4.5 -11t5.5 -14q2 -10 2 -14v-32q0 -5 -2 -11l-6 -15l-4 -14q-6 -4 -10.5 -10t-8.5 -10q-6 -5 -11 -10.5t-10 -9.5q-9 -5 -15.5 -7t-12.5 -4q-10 -2 -15 -2h-17q-9 0 -19 2t-23 4q-12 6 -18.5 13t-17.5 14q-15 14 -21 35q-4 10 -6 19.5t-2 23.5v14q0 4 2 14
q4 17 12 25q4 8 7.5 13t7.5 11q9 5 13.5 9.5t10.5 9.5l12 4l17 6q5 0 11.5 1t13.5 1q10 0 17 -1t15 -1q6 -4 12.5 -6t15.5 -4q5 -5 10 -9.5t11 -9.5q4 -6 8.5 -11t10.5 -13zM2195 207q4 -4 6.5 -11t4.5 -14q4 -7 4 -14v-32q0 -7 -4 -11q-2 -7 -4.5 -15t-6.5 -14l-16 -20
l-12 -10l-14 -10q-5 -5 -12 -7t-13 -4q-8 -2 -14 -2h-17q-19 0 -43 6q-8 6 -16 13t-17 14q-8 6 -14 14t-8 21q-6 10 -7.5 19.5t-1.5 23.5q0 8 1 14t1 14l6 14t7 11q2 8 6 13t10 11q3 5 10.5 9.5t12.5 9.5q4 2 11 4t13 6q11 0 17 1t12 1q9 0 17 -1t14 -1q6 -4 13 -6t12 -4
l26 -19q2 -6 8 -11t8 -13zM2433 260l1 1q1 1 6 1h38v-219h-38v160l-5 -9v-8q0 -2 -2 -4q-6 -16 -13 -34.5t-16 -31.5q-6 -20 -12 -36.5t-14 -36.5h-37l-55 139q-6 3 -6 12q0 4 -1 4l-2 2v-157h-42v219h40q5 0 6.5 -1t4.5 -1q2 -2 3 -2t4 -2l7 -4q0 -2 2 -3.5t2 -3.5
q4 -18 11 -32.5t16 -34.5l12 -33q3 -8 6 -15l6 -14v-14q3 0 4 -4q0 4 1 4v14l11 13l44 116q0 1 2 3l2 4q0 1 3 3l3 1q2 2 4 2t4 2zM1329 262h38v-219h-36l-100 146l-4 5v2q-3 4 -3 5q-4 1 -4 4q0 4 -7 4v-166h-37v219h33q4 0 9.5 -1t5.5 -3q3 -2 5 -2t4 -2l22 -33
q6 -8 11 -16.5t10 -19.5q13 -13 24 -29t25 -29q0 -2 1 -4.5t1 -6.5l1 -3q0 -2 1 -3v152zM672 262l94 -219h-25q-9 0 -16 4q-2 2 -4 6.5t-6 8.5l-14 27h-100l-9 -27q0 -6 -4 -6q-2 -5 -4 -5l-3 -4q-2 0 -4.5 -1t-6.5 -1q0 -2 -2 -2h-27l96 219h35zM260 262h139v-39h-100v-49
h82v-41h-82v-51h100v-39h-139v219zM839 659q1 7 2 11t1 10q0 12 -3 21q0 7 -4.5 10.5t-6.5 9.5q-2 3 -4.5 6.5t-6.5 7.5l-7 6q-2 3 -9 9q-4 2 -8 4.5t-11 4.5q-5 0 -9.5 0.5t-10.5 0.5q-3 0 -8.5 -0.5t-12.5 -0.5q-6 -2 -10 -4.5t-8 -4.5q-4 -6 -7.5 -8.5t-7.5 -6.5
q-13 -7 -14 -14q-4 -6 -5 -9.5l-3 -10.5q-1 -5 -1.5 -10t-0.5 -11t2 -14.5t4 -15.5t6.5 -12.5t11.5 -12.5q10 -15 25 -15q10 -6 29 -6h20q15 5 19 8q11 4 16 13q3 4 6 7.5t5 8.5q2 4 6.5 9t4.5 9zM1966 659v42l-7 20q-5 7 -15 14q-1 4 -6 6.5t-10 8.5l-4 2t-5 2l-7 5
q-7 0 -12 0.5t-10 0.5q-6 0 -11 -0.5t-9 -0.5l-22 -9q-3 -6 -6 -8.5t-7 -6.5q-3 -4 -6.5 -7t-5.5 -7q-2 -6 -4.5 -9.5t-2.5 -10.5q-6 -9 -6 -21q0 -6 3 -14.5t6 -15.5q4 -15 16 -25q7 -15 26 -15q10 -6 29 -6h22q3 2 8 4t8 4l10 6t6 7q11 8 15 16zM74 262h158v-24
q0 -4 -1 -6q0 -3 -2 -5l-4 -4l-105 -143h1l2 2h108v-39h-164v13q0 11 2 13q0 2 5 7v4l2 4q2 2 4 3.5t2 6.5l94 129h-102v39zM1839 203q-4 -4 -7 -10.5t-7 -14.5q-2 -4 -4 -10t-2 -14q0 -7 2 -15l4 -12q2 -7 6 -14.5t8 -10.5q4 -4 9.5 -8.5t14.5 -7.5q12 -4 27 -4q5 0 10 1
t12 1q3 2 8 5t8 7q3 0 9 2h13q3 0 9 -2q2 -1 3.5 -3t3.5 -4l6 -7q-3 -4 -6 -7.5t-7 -7.5q-7 -5 -11.5 -8t-12.5 -6q-7 -4 -11.5 -5t-10.5 -3t-11 -2h-12q-12 0 -23.5 2t-21.5 4q-10 5 -18.5 12t-16.5 15q-16 13 -22 35q-4 10 -7 19.5t-3 23.5q0 10 1 14l4 14q1 7 3 14t6 11
q6 8 8.5 13t9.5 11q14 9 25 19q4 2 9.5 4t18.5 6q5 0 12 1t15 1h13q4 0 10 -2t10.5 -3t11.5 -3q8 -4 12.5 -6.5t11.5 -7.5l13 -17l-6 -8q-2 -1 -5 -4l-2 -4h-15q-7 0 -16 4l-16 10q-10 2 -12 2h-10q-17 0 -27 -7q-17 -1 -24 -13zM1690 151l7 -10.5t3 -7.5q6 -8 6 -20
q0 -15 -8 -29l-8 -12l-9 -10q-7 -6 -11.5 -9.5t-12.5 -5.5q-5 -2 -14 -3t-15 -1q-8 0 -14.5 1l-19.5 3q-5 2 -10 6.5t-11 13.5q-4 1 -6 5l-4 8q-7 2 -7 9l7 5q2 2 4 2h4l2 2h10q4 0 4 -2q7 0 9 -2q7 -5 10.5 -6.5t5.5 -3.5q2 0 6 -1t10 -1h5q2 0 6 2q5 1 8 2t7 3q6 6 7 9
q2 4 4 7.5t2 7.5q0 7 -6 10q-5 6 -7 6q-2 4 -7.5 5t-7.5 2q-6 0 -14 7q-5 0 -9 1t-9 7q-11 3 -14.5 6t-7.5 7q-12 4 -12 14q-6 10 -6 25q0 18 6 26l6 11l8 10q4 2 10 4t13 6q6 0 10.5 1t13.5 1q4 0 8.5 -1t11.5 -1l15 -6q3 -4 6.5 -6.5t7.5 -7.5q4 -2 7.5 -5.5t3.5 -7.5
l-7 -4q-4 -2 -7 -4.5t-3 -3.5h-18l-5 1l-7 5q-2 0 -4 1t-4 1h-17q-2 0 -3 -1t-5 -3q-2 -3 -6 -6q-1 -3 -1 -10q0 -5 1 -5q2 -2 3 -5.5t3 -7.5h6q1 0 5 -2q5 -1 9.5 -3t10.5 -4l9 -2q5 -4 9 -5t9 -5q5 -2 10 -5t8 -8zM1579 336q-12 7 -16 20q-7 17 -7 31v16l11 20l12 13
q6 7 12 9q3 7 9.5 8t9.5 3q4 0 8 1.5t10 1.5q4 0 10.5 -1.5t10.5 -1.5q5 -2 8.5 -3t7.5 -8q2 -2 5.5 -4.5t6.5 -4.5l13 -13l8 -20q0 -4 1 -9t1 -7q0 -6 -1 -14t-5 -17q-5 -13 -17 -20q-5 -4 -9.5 -7.5t-11.5 -10.5q-5 -1 -12 -1.5t-16 -0.5h-15q-4 0 -10 2q-18 7 -24 18z
M2284 336q-7 -4 -13.5 -7.5t-11.5 -10.5q-8 -2 -12 -2h-30q-5 0 -13 2q-7 4 -12.5 8.5t-10.5 9.5q-6 6 -13 20q-2 9 -4.5 17t-2.5 14q0 2 1 7t1 9q3 5 4 10t4 10q2 3 5 6t5 7q6 4 18 9q3 7 8 8t7 3q6 0 9 1.5t10 1.5q2 0 8.5 -1.5t11.5 -1.5q4 -2 7.5 -3t6.5 -8l17 -9
q2 -4 4 -7t5 -6q2 -5 4 -9.5t3 -10.5q2 -4 3 -9t1 -7q0 -6 -1 -14t-5 -17q0 -6 -5 -11zM2166 127q5 12 5 27q0 16 -5 24q-3 9 -8 15.5t-8 9.5q-10 10 -24 13q-4 5 -12 6t-17 1q-12 0 -25 -7q-8 -1 -13 -4t-11 -9q-4 -3 -7.5 -9.5t-8.5 -15.5q0 -4 -1 -10t-1 -14q0 -9 1 -15
t1 -12q4 -8 8 -14t8 -11q6 -4 11 -8.5t13 -7.5q7 -2 14 -3t11 -1q9 0 17 1t12 3q8 3 14 7.5t10 8.5q11 11 16 25zM1104 127q4 11 4 27q0 13 -4 24q-2 9 -6.5 15.5t-13.5 9.5q-2 6 -7.5 9t-11.5 4q-11 7 -30 7q-14 0 -25 -7q-11 -1 -23 -13q-6 -3 -9 -9.5t-5 -15.5
q-5 -5 -5 -10v-29q0 -5 5 -12q2 -7 5 -14.5t9 -10.5q6 -4 11 -8.5t12 -7.5q11 -4 25 -4q19 0 30 4q13 7 19 16q9 3 13.5 10.5t6.5 14.5zM774 262h139v-39h-100v-55h82v-39h-82v-86h-39v219zM570 223h-58v-180h-43v180h-62v39h163v-39zM1188 864q-19 7 -37 19t-35 26h322
q-18 -14 -36 -26t-36 -19q-24 -6 -45.5 -11t-44.5 -5q-25 0 -45.5 5t-42.5 11zM1389 262h165v-39h-65v-180h-39v180h-61v39zM1366 1315q18 -8 36 -20.5t36 -22.5h-325q38 30 75 43q37 18 88 18q48 0 90 -18zM559 604l-47 68q4 0 11 4q8 5 9 10q9 5 9 11v26q0 1 -2 5
q-3 10 -11 15q-5 9 -14 9q-2 5 -6.5 6t-9.5 1h-57v-155h24v64h23l40 -56q1 -4 8 -6q2 -2 3 -2h20zM1169 604l-67 155h-22l-65 -155h11q7 0 9 2q0 2 7 6l11 27h76l13 -27q1 -4 5 -6q2 -2 8 -2h14zM1930 721q3 -2 8 -7.5t6 -12.5q4 -7 4 -21q0 -12 -4 -23q-1 -5 -6 -9.5
t-8 -6.5q-5 -4 -9 -6.5t-8 -7.5q-9 -4 -23 -4q-6 0 -12 1t-10 3q-5 5 -10.5 7.5t-9.5 6.5q-3 2 -6 6.5t-3 9.5q-4 7 -5 12t-1 11q0 10 6 21q0 7 3 12.5t6 7.5q4 4 9.5 7t10.5 5q9 4 22 4q5 0 11.5 -1t11.5 -3zM801 721q7 -2 9.5 -7.5t4.5 -12.5q4 -7 4 -21q0 -11 -4 -23
q-2 -5 -4.5 -9.5t-9.5 -6.5q-1 -4 -6 -7l-11 -7q-9 -4 -22 -4q-11 0 -23 4q-4 5 -9 7.5t-9 6.5q-2 2 -5.5 6.5t-5.5 9.5q-4 12 -4 23q0 12 4 21q2 7 5.5 12.5t5.5 7.5q4 4 9 7t9 5q5 2 12.5 3t10.5 1q13 0 22 -4q8 -2 11.5 -5t5.5 -7zM2126 759h-22v-120q-1 2 -2 5t-3 4
l-75 104l-3 7h-24v-155h22v121l2 -2l87 -119h18v155zM2218 332h31l6 3q3 3 4 5q6 0 14 5q2 5 3 7t4 4q0 3 3 8t3 10v34q-3 6 -7 10.5t-6 7.5q-10 4 -18 12h-43q-6 -4 -9.5 -7t-9.5 -5q-5 -3 -7.5 -7.5t-4.5 -10.5q-1 -4 -1.5 -7t-0.5 -7v-20q0 -13 5 -18q2 -2 4.5 -4t4.5 -7
l7 -3q2 -2 4 -2q4 -4 7 -5t7 -3zM296 690q5 12 5 20q0 9 -5 18q0 2 -5 7l-6 6q-2 3 -5 7t-10 4q-3 5 -8.5 6t-9.5 1h-52v-155h16v59h36q4 0 9.5 0.5t8.5 2.5q10 4 15 10q4 2 7.5 6t3.5 8zM1579 408q-6 -14 -6 -21v-8q0 -4 3 -5q0 -10 5 -18q0 -2 2 -4t4 -7l5 -3q2 -2 11 -2
q2 -4 5.5 -5t5.5 -3h27q6 2 9.5 3t6.5 5l6 2l4 3q2 5 4.5 7t2.5 4q3 3 4 8t3 10q0 2 1 5.5t1 7.5q0 2 -1 8t-5 13q0 6 -4 10.5t-6 7.5q-3 1 -8 6l-10 6h-42q-4 -4 -10 -7l-10 -5l-5 -8q-3 -5 -3 -10zM997 759h-18v-120l-2 4q-2 6 -2 5l-74 104q-5 0 -6 7h-25v-155h21v124h2
l2 -1v-4l86 -119h16v155zM2115 381q-5 -1 -8.5 -2t-5.5 -2l45 -61h-12l-6 2q-4 0 -4 9l-39 50h-28v-61h-15v140h57q3 0 9 -2q2 -2 6.5 -5.5t5.5 -5.5q4 -2 5 -5.5t7 -7.5v-27q-4 -4 -5 -8t-3 -6zM1342 381q-3 -3 -11 -4l47 -61h-15q-3 0 -3 2q-6 0 -6 9l-39 50h-28v-61h-13
v140h56q2 0 6 -2q10 -1 18 -11q0 -2 3 -5.5t3 -7.5q2 -2 2 -6v-14q0 -1 -2 -7q0 -10 -4 -14l-5 -4q-3 -3 -9 -4zM412 759h-98v-155h98v21h-74v47h58v18h-58v45h74v24zM1721 759h-93v-155h93v21h-69v47h58v18h-58v45h69v24zM2460 454q6 2 5 2h13v-140h-12v114l-2 -2v-2
q-4 -8 -6.5 -17.5t-8.5 -14.5q-5 -7 -7 -12.5t-7 -14.5q-2 -9 -3 -15.5t-5 -9.5q-3 -8 -6.5 -12.5t-5.5 -13.5h-15q-10 14 -15 27t-10 28q-4 12 -12 26.5t-12 28.5v2h-4v-112h-14v140h14q4 0 6 -2l2 -2v-7l49 -105q0 -4 2 -4l1 2v4q0 2 8 6l41 97q2 7 3 7t1 2zM1480 759h-22
v-104q0 -4 -2 -8q-1 -7 -10 -12q0 -2 -4 -3.5t-6 -6.5l-9 -2h-9q-7 0 -13 2q-5 5 -8.5 6.5t-5.5 3.5l-11 12q0 3 -1 7.5t-1 11.5v93h-20v-93q0 -7 1 -11.5t1 -7.5q0 -8 6 -14q3 -8 10 -12q2 -4 4.5 -6.5t8.5 -4.5q2 -2 6.5 -3t7.5 -3q4 0 7 -1.5t8 -1.5t8.5 1.5t11.5 1.5
q2 2 5 3t7 3q3 2 6 4.5t6 6.5q3 2 5 5.5t7 6.5q0 4 3 7t3 7v112zM664 632q2 5 3 8t1 8q0 12 -5.5 20t-12.5 14q-2 0 -3.5 2t-5.5 4l-4 2h-4q-1 0 -1 4q-8 0 -9 1q-8 2 -9.5 3t-5.5 3q-6 5 -9 5q-3 4 -3 6v15q0 1 1.5 2.5t1.5 3.5q2 0 4.5 1t4.5 1q6 2 5 2h10q2 -2 4 -2
q7 0 8 -4q1 -3 4 -3h2q9 0 14 5l4 2q0 2 -2 4l-5 4q-2 1 -4.5 4t-6.5 5q-2 0 -4 2.5t-5 4.5q-5 0 -7 0.5t-4 0.5q-7 0 -12 -0.5t-8 -0.5q-5 -2 -7 -4.5t-6 -4.5q-2 -6 -5.5 -8.5t-8.5 -6.5q0 -4 -2 -7t-2 -9t4 -18l12 -11q2 -2 6 -5t7 -3q5 -2 8 -4t7 -2q1 -2 6 -2t7 -2
l6 -2q2 0 4 -2t2 -3t2 -6q2 -2 2 -7v-9q0 -2 -2 -4t-2 -4t-2 -3q-2 -5 -6 -6l-4 -1q-4 0 -8 -1t-5 -1q-4 0 -7 1t-6 1q-2 0 -3.5 1t-1.5 6l-4 1q-4 4 -11 4h-7l-4 -2l-5 -2q0 -3 3 -3q0 -3 2 -5q0 -4 4 -4v-6h5q7 -7 16 -9t19 -2h10q5 0 11 2q4 2 8.5 4t6.5 5q13 5 14 17z
M1741 316h-18v140h20q3 0 4 -4l74 -104q2 0 2 -5l2 -1v114h14v-140h-12l-82 114v4h-4v-118zM1596 632q9 7 9 16q0 12 -5.5 20t-12.5 14q-6 4 -6 6h-4l-4 2h-3q-4 0 -5 4h-4q-2 0 -5 1q-2 2 -4 3t-7 3l-7 5q-2 1 -3 2l-2 2l-1 2q0 1 -1 3t-1 4q0 4 4 8q0 2 4 6q2 0 3 1t4 1
q2 2 11 2l4 -1q2 -1 5 -1q3 -3 8 -4q6 -3 8 -3q6 0 8 5l5 2q0 2 -2.5 4t-4.5 4q0 1 -3 4l-5 5q-3 0 -5.5 2.5t-6.5 4.5h-6l-5 1q-6 0 -10 -0.5t-8 -0.5l-13 -9q-5 -6 -7 -8.5t-6 -6.5q-1 -4 -3 -7t-2 -9q0 -4 2 -7.5t3 -10.5l10 -11q5 -2 7.5 -5t6.5 -3q4 -2 7.5 -4t6.5 -2
q4 -2 7 -2t6 -2q6 0 10 -4l4 -3q2 -2 2 -6q2 -2 2 -6v-9q0 -3 -2 -5q0 -6 -6 -7q-6 -5 -7 -6t-3 -1q-7 0 -8 -1t-5 -1q-3 0 -6.5 1t-5.5 1q-2 1 -4 3l-4 4l-2 1q-5 4 -10 4h-7q-2 0 -4 -2l-6 -2q2 -1 2 -2t2 -1q0 -3 1 -4l3 -3v-2q6 -6 9 -6q7 -7 14.5 -9t17.5 -2h12
q3 0 11 2q3 2 6.5 4t7.5 5l5 8q3 3 4 9zM78 350q-6 6 -7 17l-3 10q-1 3 -1 10t4 16l2 10t5 10l4 6l5 7q2 2 6.5 4.5t6.5 4.5q6 7 11 8t9 3q3 0 8 1.5t10 1.5q7 0 14.5 -1.5t13.5 -5.5q8 -2 12.5 -6.5t8.5 -9.5q-2 -2 -4 -2v-4h-13q-4 2 -7 5t-7 3h-36l-22 -12
q-4 -3 -7.5 -7.5t-4.5 -10.5q-2 -7 -3 -13t-1 -8q0 -9 4 -13q0 -5 0.5 -10t0.5 -8l5 -4q4 -1 6 -7l7 -4q3 -1 8 -1q3 -4 5.5 -5t6.5 -3h33q2 2 7 3t9 5v29h-14v2q-2 0 -3 1.5t-3 3.5h-2q-1 1 -1 3v4h36v-51q-2 -5 -3.5 -6t-5.5 -8h-12q-8 -2 -12 -2h-34q-4 0 -9 3.5t-11 7.5
q-2 0 -6.5 2.5t-6.5 6.5q-3 4 -5 6.5t-4 7.5zM240 438v-44h56v-15h-56v-47h67v-16h-84v140h84v-18h-67zM1171 438v-44h60v-15h-60v-47h68v-16h-84v140h84v-18h-68zM2375 759h-20q-3 0 -8 -5q-6 -5 -6 -10l-37 -47h-2q0 -2 -2 -2v2l-39 47q-1 7 -4 10q-5 5 -11 5h-18l58 -77
v-2q0 -2 2 -2l2 -2v-72h21v70q2 0 2 2l2 4v2zM641 456v-85q0 -7 2 -10t5 -5q0 -6 3.5 -9.5t5.5 -4.5q0 -2 4.5 -4t6.5 -4q6 -2 8 -2h16q1 0 5 2l9 4q2 1 3.5 2t3.5 2q3 1 8 14q4 3 4 15v85h14v-85q0 -12 -4 -23t-12 -16q-2 -5 -6.5 -9.5t-8.5 -4.5q-8 -1 -13.5 -1.5
t-10.5 -0.5t-11 0.5t-14 1.5q-2 0 -6.5 4.5l-9.5 9.5l-10 16q-1 6 -3.5 11t-2.5 12v85h14zM2253 625h-69v134h-21v-155h90v21zM1271 625h-67v134h-20v-155h87v21zM1452 336q1 2 2 3.5t2 3.5q2 2 3 6.5t1 6.5q0 9 -2 11t-3 4.5t-3 4.5q-1 1 -8 3q-4 0 -6 2t-6 2q-8 0 -14 6
q-9 0 -13 7q-2 0 -3.5 3.5t-3.5 7.5v22q0 1 2 7q0 8 7 9l6 7q2 1 3.5 2t3.5 2q5 0 7.5 1.5t8.5 1.5l6 -2l4 -1q4 0 5 -1t5 -3q2 0 4 -3.5t2 -5.5q4 0 6 -3l1 -2l-2 -2q-6 -2 -9 -2h-6q-2 2 -2 4h-23q-9 0 -9 -2q-5 -7 -5 -8q-4 0 -4 -8q0 -5 4 -6q0 -5 3 -6q0 -1 3 -4l4 -1
q4 -4 7.5 -4t7.5 -3q3 0 4 -1l2 -1q4 0 8 -5h4q2 0 4 -2h2q5 -4 8.5 -7t5.5 -4q1 -5 1.5 -10.5t0.5 -9.5v-10q0 -5 -4 -6q-3 -4 -5.5 -7.5t-6.5 -5.5q-2 -2 -6 -5.5t-6 -3.5q-6 -2 -10 -2h-9q-11 0 -18.5 1t-12.5 10q-2 0 -3.5 2.5t-5.5 4.5v4l-2 2l4 2h7q1 0 3 -1t4 -1
q4 -4 6.5 -5t4.5 -3h22q8 0 12 4zM1069 316l-59 140h6q6 0 8 -2t3 -2t3 -7l43 -103v-2l2 -6v6l2 2q5 14 13 27.5t12 24.5q4 16 10 28t12 23q0 7 1.5 7t1.5 2q6 2 7 2h11q-8 -18 -15.5 -35t-16.5 -34q-4 -9 -7 -18.5t-6 -18.5l-16 -34h-15zM532 438v-49h60v-12h-60v-61h-16
v140h85v-18h-69zM1959 438v-49h54v-12h-54v-61h-16v140h81v-18h-65zM879 456v-124h63v-16h-80v140h17zM371 316v122h-46v18h105v-18h-47v-122h-12zM784 456v-124h64v-16h-80v140h16zM270 728q2 -1 3 -4t3 -5q4 -4 4 -9v-4q0 -5 -4 -9q-2 -2 -3 -4.5t-3 -2.5l-4 -4l-4 -4h-46
v53h36q4 0 10 -2q1 0 4 -3zM1325 389q4 0 6 3q4 4 9 4l2 5q0 2 5 6q0 1 1 4t1 7q0 2 -1 3.5t-1 4.5q-7 3 -7 8q-5 0 -9 4h-44v-49h38zM2101 392q4 4 7 4q7 7 7 11q2 4 2 11q0 4 -2 8q0 2 -7 8q-3 0 -7 4h-44v-49h36q3 0 8 3zM1525 456v-140h-18v140h18zM518 701l-4 -7
q-2 0 -3 -2t-3 -2q-2 -2 -10 -2h-33v47h33q4 0 10 -2q2 0 6 -5q1 -2 2 -3.5t2 -3.5q3 -2 3 -9q0 -5 -3 -11zM684 129l-27 69q0 2 -1 3l-1 2q0 4 -3 6v-6l-1 -2q-1 -1 -1 -3l-27 -69h61zM1093 727v-4l27 -64h-59l30 64v5zM1755 82q6 0 6 -6q2 -2 2 -5v-4q0 -9 -2 -11
q0 -5 -6 -9q-3 0 -6 -4h-17q-4 4 -11 4q0 2 -5 9q-2 2 -2 11v4q0 3 2 5l3 4l2 2q7 4 11 4q1 3 4 3h10q3 0 3 -3q3 0 6 -4z" />
    <glyph glyph-name="colon" unicode=":" horiz-adv-x="506" 
d="M148 75q0 42 29 71.5t76 29.5q23 0 42 -8t33 -22t22 -32t8 -39t-8 -39.5t-22 -32t-33.5 -21.5t-42.5 -8t-42 8t-33 22t-21.5 32t-7.5 39zM148 936q0 42 29 71.5t76 29.5q46 0 75.5 -29.5t29.5 -71.5q0 -21 -8 -39.5t-22 -32t-33.5 -21.5t-42.5 -8q-46 0 -75 29.5
t-29 71.5z" />
    <glyph glyph-name="semicolon" unicode=";" horiz-adv-x="506" 
d="M194 150h153l-150 -347h-116zM148 940q0 6 2 16q0 3 1 4q0 2 2 8l2 7q13 28 37 45l11 6q1 0 1.5 0.5t1.5 0.5q8 4 12 5q18 5 35 5h4q24 -1 45 -11l11 -6q22 -16 34 -38l3 -7l5 -15q0 -2 1 -4q0 -2 0.5 -4t0.5 -4q1 -4 1 -12v-4q0 -6 -1 -9q0 -4 -2 -12l-2 -7l-6 -15
l-4 -7q-2 -2 -2 -3l-8 -9q-1 -2 -5 -6t-6 -5q-3 -3 -9 -7l-11 -6l-4 -2l-7 -3q-2 0 -2.5 -0.5t-1.5 -0.5l-13 -3q-5 -2 -11 -2h-11h-14q-26 3 -46 17q-6 4 -9 7q-11 8 -21 23q-2 3 -3 5.5t-2 5.5l-2 3q0 1 -0.5 2t-0.5 2q-6 16 -6 36v4z" />
    <glyph glyph-name="less" unicode="&#x3c;" horiz-adv-x="1243" 
d="M987 984v-149l-633 -288l633 -287v-150l-816 385v105z" />
    <glyph glyph-name="question" unicode="?" horiz-adv-x="924" 
d="M346 388v61q0 52 15 97.5t39.5 85t57.5 75t69 67.5q35 32 68.5 61t59.5 58t42 60.5t16 67.5q0 110 -70.5 172t-198.5 62q-126 0 -196.5 -62.5t-70.5 -179.5h-154q0 85 27.5 155t81.5 119t133.5 76t182.5 27q94 0 171 -26.5t132 -75t85.5 -116.5t30.5 -150
q0 -63 -21.5 -112.5t-55 -90.5t-75.5 -75.5t-83 -67.5q-65 -53 -106 -107.5t-41 -123.5v-57h-139zM318 81q0 21 7.5 39.5t21.5 32.5t33.5 22t42.5 8t42.5 -8t33.5 -22t21.5 -32.5t7.5 -39.5q0 -42 -29 -71.5t-76 -29.5q-23 0 -42 8t-33 22t-22 32t-8 39z" />
    <glyph glyph-name="A" unicode="A" horiz-adv-x="1352" 
d="M1027 318h-704l-135 -318h-167l578 1360h153l577 -1360h-167zM381 455h588l-288 679l-6 23l-5 -23z" />
    <glyph glyph-name="B" unicode="B" horiz-adv-x="1312" 
d="M337 765h412q46 0 87 17.5t72.5 48.5t50 73t18.5 91q0 48 -18.5 90.5t-49.5 74t-72.5 49.5t-87.5 18h-412v-462zM800 136q49 0 95 18.5t81 52t56.5 79.5t21.5 102q0 53 -19.5 99t-53.5 79.5t-80 53t-98 19.5h-466v-503h463zM180 0v1360h577q83 0 153 -26t120.5 -73
t79 -112.5t28.5 -144.5q0 -47 -14 -91t-38.5 -81.5t-58 -66.5t-72.5 -46q55 -16 103 -48t83.5 -76.5t56 -99t20.5 -114.5q0 -90 -33.5 -161t-89.5 -119.5t-129 -74.5t-152 -26h-634z" />
    <glyph glyph-name="C" unicode="C" horiz-adv-x="1627" 
d="M1340 940q-34 72 -86.5 129.5t-118.5 98t-142.5 62.5t-158.5 22q-118 0 -221.5 -44t-181 -121t-122 -181t-44.5 -225q0 -120 44.5 -224t122 -180.5t181 -120.5t221.5 -44q81 0 157.5 21.5t142.5 61.5t118.5 97.5t86.5 129.5h164q-38 -106 -107.5 -189t-158.5 -140.5
t-193 -88t-210 -30.5q-100 0 -193 25t-173.5 71t-147 110t-113.5 143t-73 169.5t-26 188.5q0 99 26 190t73 170t113.5 143t147 110t173.5 71t193 25q106 0 209.5 -30t193 -87.5t159 -141t107.5 -191.5h-163z" />
    <glyph glyph-name="D" unicode="D" horiz-adv-x="1496" 
d="M671 139q134 0 237.5 37.5t174.5 107.5t107.5 169.5t36.5 223.5q0 119 -34.5 219t-103.5 172.5t-173.5 113t-244.5 40.5h-334v-1083h334zM180 1360h495q155 0 285 -45t224.5 -132t147.5 -213.5t53 -288.5q0 -152 -46.5 -277.5t-136.5 -215t-221.5 -139t-301.5 -49.5h-499
v1360z" />
    <glyph glyph-name="E" unicode="E" horiz-adv-x="1167" 
d="M180 1360h896v-140h-739v-478h643v-138h-643v-465h748v-139h-905v1360z" />
    <glyph glyph-name="F" unicode="F" horiz-adv-x="1141" 
d="M180 1360h896v-140h-739v-507h643v-138h-643v-575h-157v1360z" />
    <glyph glyph-name="G" unicode="G" horiz-adv-x="1644" 
d="M822 696h686q3 -157 -45.5 -289.5t-138 -228.5t-215 -150t-275.5 -54q-100 0 -193 25t-173.5 71t-147 110t-113.5 143t-73 169.5t-26 188.5q0 99 26 190t73 170t113.5 143t147 110t173.5 71t193 25q152 0 286 -55t245 -167l-106 -104q-35 40 -80 74t-99 59.5t-115.5 40
t-130.5 14.5q-118 0 -221.5 -44t-181 -121t-122 -181t-44.5 -225q0 -120 44.5 -224t122 -180.5t181 -120.5t221.5 -44q114 0 205 34.5t157 96t105.5 147t49.5 187.5h-529v119z" />
    <glyph glyph-name="H" unicode="H" horiz-adv-x="1488" 
d="M180 1360h157v-618h813v618h158v-1360h-158v604h-813v-604h-157v1360z" />
    <glyph glyph-name="I" unicode="I" horiz-adv-x="517" 
d="M180 1360h157v-1360h-157v1360z" />
    <glyph glyph-name="J" unicode="J" horiz-adv-x="774" 
d="M46 138h136q80 0 135 20t88.5 58.5t48 93.5t14.5 125v925h157v-926q0 -212 -109.5 -323t-334.5 -111h-135v138z" />
    <glyph glyph-name="K" unicode="K" horiz-adv-x="1297" 
d="M337 477l725 883h186l-496 -600l529 -760h-190l-441 642l-313 -374v-268h-157v1360h157v-883z" />
    <glyph glyph-name="L" unicode="L" horiz-adv-x="1062" 
d="M180 1360h157v-1221h673v-139h-830v1360z" />
    <glyph glyph-name="M" unicode="M" horiz-adv-x="1692" 
d="M821 457l-484 643v-1100h-157v1360h135l530 -698l530 698h137v-1360h-156v1099l-488 -642h-47z" />
    <glyph glyph-name="O" unicode="O" horiz-adv-x="1670" 
d="M108 681q0 99 26 190t73 170t113.5 143t147 110t173.5 71t193 25t193 -25t173.5 -71t147 -110t114 -143t73.5 -170t26 -190q0 -98 -26 -188.5t-73.5 -169.5t-114 -143t-147 -110t-173.5 -71t-193 -25t-193 25t-173.5 71t-147 110t-113.5 143t-73 169.5t-26 188.5z
M265 681q0 -120 44.5 -224t122 -180.5t181 -120.5t221.5 -44t222 44t181 120.5t122 180.5t45 224q0 121 -45 225t-122 181t-181 121t-222 44t-221.5 -44t-181 -121t-122 -181t-44.5 -225z" />
    <glyph glyph-name="P" unicode="P" horiz-adv-x="1269" 
d="M337 480v-480h-157v1360h554q97 0 179 -33t141.5 -92t92.5 -139.5t33 -176.5t-33 -176.5t-92 -139t-140 -91t-178 -32.5h-400zM731 618q63 0 116.5 23t92.5 63.5t61 95.5t22 119q0 63 -22.5 118.5t-62 96.5t-93.5 64.5t-117 23.5h-391v-604h394z" />
    <glyph glyph-name="Q" unicode="Q" horiz-adv-x="1670" 
d="M108 681q0 99 26 190t73 170t113.5 143t147 110t173.5 71t193 25t193 -25t173.5 -71t147 -110t114 -143t73.5 -170t26 -190q0 -142 -52.5 -265.5t-144.5 -218.5l234 -234l-108 -109l-242 246q-88 -60 -193 -93t-221 -33q-100 0 -193 25t-173.5 71t-147 110t-113.5 143
t-73 169.5t-26 188.5zM265 681q0 -120 44.5 -224t122 -180.5t181 -120.5t221.5 -44t222 44t181 120.5t122 180.5t45 224q0 121 -45 225t-122 181t-181 121t-222 44t-221.5 -44t-181 -121t-122 -181t-44.5 -225z" />
    <glyph glyph-name="S" unicode="S" horiz-adv-x="1252" 
d="M244 391q0 -55 28 -105.5t76 -89.5t113.5 -62t140.5 -23q195 0 295.5 67t100.5 197q0 69 -30.5 115.5t-84 76.5t-125 48.5t-153.5 32.5q-49 7 -103 16t-107 24t-101 38.5t-85 58.5t-58.5 84.5t-21.5 117.5q0 80 27 153t87 128.5t157 88.5t238 33q108 0 193.5 -28.5
t145.5 -79t92 -121t32 -154.5h-158q0 55 -22.5 99.5t-63.5 76.5t-100 49.5t-131 17.5q-99 0 -164 -22t-104 -57.5t-55 -80t-16 -90.5q0 -59 28.5 -98.5t79.5 -65.5t122 -41t156 -25q56 -10 113.5 -22.5t111.5 -32t101 -48t82 -69.5t55.5 -96t20.5 -128q0 -95 -38 -169.5
t-110 -126t-175.5 -79t-234.5 -27.5q-122 0 -217.5 37t-161 96t-99.5 134t-34 152h157z" />
    <glyph glyph-name="T" unicode="T" horiz-adv-x="1151" 
d="M498 1222h-437v138h1033v-138h-438v-1222h-158v1222z" />
    <glyph glyph-name="U" unicode="U" horiz-adv-x="1416" 
d="M1108 1361h158v-834q0 -123 -42 -225t-116 -175t-177 -113.5t-224 -40.5q-118 0 -220 39t-177 111.5t-118 175t-43 228.5v834h156v-833q0 -85 26.5 -160.5t77.5 -132.5t126 -90t172 -33q94 0 168 32.5t126 88.5t79.5 131t27.5 161v836z" />
    <glyph glyph-name="V" unicode="V" horiz-adv-x="1361" 
d="M1166 1360h168l-581 -1360h-147l-581 1360h167l487 -1154h1z" />
    <glyph glyph-name="W" unicode="W" horiz-adv-x="2047" 
d="M1462 221h3l388 1139h166l-476 -1360h-156l-364 1103l-363 -1103h-155l-477 1360h167l388 -1139h3l355 1126h166z" />
    <glyph glyph-name="X" unicode="X" horiz-adv-x="1325" 
d="M661 812l402 548h188l-491 -654l523 -706h-188l-434 598l-434 -598h-188l523 706l-491 654h188z" />
    <glyph glyph-name="Y" unicode="Y" horiz-adv-x="1317" 
d="M1291 1360l-554 -837l1 -523h-158v522l-553 838h187l444 -694h2l443 694h188z" />
    <glyph glyph-name="Z" unicode="Z" horiz-adv-x="1287" 
d="M109 0l-2 124l856 1098h-812v138h1019v-121l-857 -1101h898v-138h-1102z" />
    <glyph glyph-name="asciicircum" unicode="^" horiz-adv-x="940" 
d="M111 820l326 609h58l326 -609l-147 -12l-208 424l-208 -424z" />
    <glyph glyph-name="underscore" unicode="_" horiz-adv-x="975" 
d="M948 -252h-922v131h922v-131z" />
    <glyph glyph-name="grave" unicode="`" horiz-adv-x="479" 
d="M189 1428l172 -279h-116l-174 237z" />
    <glyph glyph-name="bar" unicode="|" horiz-adv-x="501" 
d="M176 1591h149v-1947h-149v1947z" />
    <glyph glyph-name="braceright" unicode="}" horiz-adv-x="680" 
d="M434 679q-73 42 -118 118t-45 190v322q0 58 -8.5 92t-32 53t-63.5 26.5t-103 13.5l1 127q113 -2 182.5 -25t108 -70.5t52 -121t13.5 -176.5v-215q-1 -111 41.5 -178t140.5 -93v-125q-94 -22 -138.5 -87t-43.5 -184v-215q0 -103 -13.5 -176.5t-52 -120.5t-108 -70.5
t-182.5 -25.5l-1 127q76 7 117.5 17.5t61.5 39t24 81t4 144.5v225q0 101 41 181.5t122 125.5z" />
    <glyph glyph-name="asciitilde" unicode="~" horiz-adv-x="1243" 
d="M1099 604q-48 -47 -114.5 -77.5t-145.5 -30.5q-62 0 -117.5 18t-109 39.5t-106 39.5t-107.5 18q-63 0 -119 -24t-104 -69l-32 115q48 47 113.5 77t139.5 30q64 0 120.5 -17.5t109.5 -39t104.5 -39t105.5 -17.5q72 0 126.5 23.5t102.5 67.5z" />
    <glyph glyph-name="exclamdown" unicode="&#xa1;" horiz-adv-x="513" 
d="M198 621h116l19 -280v-693h-153v693zM153 927q0 21 7.5 39t21.5 32t33 22t42 8q48 0 77 -29.5t29 -71.5q0 -21 -7.5 -39.5t-21.5 -32.5t-33.5 -22t-43.5 -8q-46 0 -75 30t-29 72z" />
    <glyph glyph-name="cent" unicode="&#xa2;" horiz-adv-x="1358" 
d="M262 509q0 -92 33 -166.5t88.5 -126.5t128 -80t150.5 -28q57 0 110 14.5t98.5 41.5t82 66t62.5 87h158q-26 -76 -75 -139.5t-115.5 -109t-148.5 -71t-173 -25.5q-118 0 -219 42t-175.5 114.5t-116.5 170.5t-42 210t42 209.5t116.5 170.5t175.5 115t219 42q91 0 172.5 -25
t147.5 -71t115.5 -109.5t77.5 -139.5h-159q-25 49 -62 87.5t-82.5 65.5t-98.5 41.5t-110 14.5q-78 0 -150.5 -28t-128 -80.5t-88.5 -126.5t-33 -166zM608.689 1213.39h147.891v-255.021h-147.891v255.021zM608.453 66.7305h147.69v-249.316h-147.69v249.316z" />
    <glyph glyph-name="sterling" unicode="&#xa3;" horiz-adv-x="1184" 
d="M364 684q-7 58 -21 103.5t-27.5 87.5t-23.5 84.5t-10 93.5q0 83 28.5 146t80 105t123.5 63.5t158 21.5q33 0 74.5 -8.5t84 -27t83 -48t72 -72.5t50.5 -99.5t19 -129.5h-152q0 63 -24 110t-59 78.5t-73.5 47.5t-68.5 16q-110 0 -174.5 -54t-64.5 -159q0 -47 10 -87.5
t23 -81.5t26 -86.5t19 -103.5h330l1 -132h-329q-6 -61 -26.5 -126t-50 -123t-63.5 -103t-67 -66h794v-134h-997v109q52 29 96.5 80t78.5 112t55 127t27 125h-141v131h139z" />
    <glyph glyph-name="currency" unicode="&#xa4;" horiz-adv-x="1303" 
d="M130 618q0 86 26.5 164t75.5 143l-119 118l111 112l120 -120q64 45 141.5 70.5t165.5 25.5t164.5 -25t140.5 -70l120 119l110 -112l-116 -116q49 -65 76 -143.5t27 -165.5q0 -88 -27 -166t-76 -143l116 -116l-111 -112l-118 119q-64 -45 -141 -69.5t-165 -24.5t-165 25
t-141 70l-121 -120l-110 112l118 118q-49 64 -75.5 142t-26.5 165zM280 618q0 -81 29.5 -150.5t80 -121t118.5 -80.5t145 -29q78 0 145.5 29t118 80.5t79.5 121t29 150.5t-29 150.5t-79.5 121t-118.5 81t-146 29.5q-77 0 -145 -29.5t-118.5 -80.5t-79.5 -121t-29 -151z" />
    <glyph glyph-name="yen" unicode="&#xa5;" horiz-adv-x="1231" 
d="M1085 572h-938v117h349l-442 671h174l387 -602l387 602h175l-442 -671l350 1v-118zM1085 380v-116h-395v-264l-149 1v263h-394v116h938z" />
    <glyph glyph-name="section" unicode="&#xa7;" horiz-adv-x="1241" 
d="M998 1254q-33 20 -71 38.5t-81.5 32.5t-90.5 22.5t-98 8.5q-57 0 -109 -13t-92 -41t-64 -70.5t-24 -100.5q0 -63 27 -106.5t71.5 -74t102 -52t119.5 -41.5q76 -24 149.5 -55t131 -76t92.5 -108t35 -152q0 -74 -24 -135.5t-66 -107t-98.5 -75t-120.5 -39.5q36 -19 70 -41
t62.5 -49t51 -59.5t35.5 -72.5q18 -59 13 -130q-6 -81 -42 -141.5t-94.5 -101.5t-135 -61.5t-164.5 -20.5q-117 0 -216 30.5t-196 84.5l72 126q33 -20 71 -38.5t81 -33t90.5 -23t98.5 -8.5q56 0 108.5 13t92.5 41t64 70.5t24 101.5q0 63 -27 106.5t-71.5 74t-102.5 52
t-120 41.5q-76 24 -149 55t-130.5 76t-92.5 107.5t-35 151.5q0 74 24 135.5t65.5 107.5t97.5 75t120 40q-36 19 -69.5 41t-62 49t-50.5 59.5t-35 72.5q-17 58 -13 130q7 81 43 141.5t94 101.5t134.5 61.5t164.5 20.5q116 0 215.5 -30.5t196.5 -84.5zM303 460
q0 -63 32 -108.5t83 -75.5t114 -47.5t124 -24.5q56 1 107 18.5t90 50.5t62 82t23 112q0 64 -32.5 109t-83.5 74.5t-113.5 46.5t-123.5 25q-56 0 -107 -17.5t-90 -50.5t-62 -82t-23 -112z" />
    <glyph glyph-name="dieresis" unicode="&#xa8;" horiz-adv-x="868" 
d="M195 1268q0 34 25 57.5t63 23.5q40 0 64.5 -23.5t24.5 -57.5q0 -33 -24.5 -56t-64.5 -23q-39 0 -63.5 23t-24.5 56zM526 1268q0 34 24.5 57.5t62.5 23.5q41 0 65 -23.5t24 -57.5q0 -33 -24.5 -56t-64.5 -23q-39 0 -63 23t-24 56z" />
    <glyph glyph-name="copyright" unicode="&#xa9;" horiz-adv-x="1663" 
d="M105 681q0 99 25.5 190.5t72.5 171t112.5 144.5t146.5 111.5t174 72t195 25.5t195.5 -25.5t174 -72t146.5 -111.5t113 -144.5t72.5 -171t25.5 -190.5q0 -98 -25.5 -189t-72.5 -170.5t-113 -145t-146.5 -112t-174 -72t-195.5 -25.5t-195 25.5t-174 72t-146.5 112
t-112.5 145t-72.5 170.5t-25.5 189zM205 681q0 -89 22.5 -170t63 -150t97.5 -125t126.5 -95.5t149.5 -61t167 -21.5t167.5 21.5t150 61t127 95.5t98 125t63 150t22.5 170t-22.5 170.5t-63 151t-98 125.5t-127 95.5t-150 61t-167.5 21.5q-86 0 -166.5 -21.5t-150 -61
t-126.5 -95.5t-97.5 -125.5t-63 -151t-22.5 -170.5zM1112 301q-29 -22 -58.5 -39.5t-63 -30t-72.5 -19t-86 -6.5q-102 0 -190 37.5t-153 102t-102 151t-37 184.5t37 185t101.5 152t153 102.5t190.5 37.5q49 0 89.5 -8t74.5 -22.5t62.5 -34.5t52.5 -44l-68 -59q-2 3 -16.5 15
t-40.5 25.5t-64 24.5t-86 11q-79 0 -147.5 -29.5t-119.5 -81.5t-80.5 -122.5t-29.5 -151.5t29.5 -151t80.5 -121.5t120 -81.5t147 -30q52 0 91.5 10t66.5 23q32 15 54 34z" />
    <glyph glyph-name="guillemotleft" unicode="&#xab;" horiz-adv-x="1192" 
d="M401 119l-275 363l275 362h164l-275 -362l275 -363h-164zM878 119l-275 363l275 362h164l-276 -362l275 -363h-163z" />
    <glyph glyph-name="logicalnot" unicode="&#xac;" horiz-adv-x="1187" 
d="M149 692h887v-437h-150v306h-737v131z" />
    <glyph glyph-name="registered" unicode="&#xae;" horiz-adv-x="1663" 
d="M105 681q0 99 25.5 190.5t72.5 171t112.5 144.5t146.5 111.5t174 72t195 25.5t195.5 -25.5t174 -72t146.5 -111.5t113 -144.5t72.5 -171t25.5 -190.5q0 -98 -25.5 -189t-72.5 -170.5t-113 -145t-146.5 -112t-174 -72t-195.5 -25.5t-195 25.5t-174 72t-146.5 112
t-112.5 145t-72.5 170.5t-25.5 189zM205 681q0 -89 22.5 -170t63 -150t97.5 -125t126.5 -95.5t149.5 -61t167 -21.5t167.5 21.5t150 61t127 95.5t98 125t63 150t22.5 170t-22.5 170.5t-63 151t-98 125.5t-127 95.5t-150 61t-167.5 21.5q-86 0 -166.5 -21.5t-150 -61
t-126.5 -95.5t-97.5 -125.5t-63 -151t-22.5 -170.5zM638 225h-107v923h361q61 0 114 -22t92.5 -60.5t62 -90.5t22.5 -113q0 -45 -12.5 -85.5t-35 -74t-54 -59.5t-69.5 -42l188 -376h-115l-174 352h-273v-352zM886 667q40 0 75 15.5t60.5 41.5t40 61.5t14.5 76.5
q0 40 -14.5 75.5t-40.5 62.5t-61 42.5t-75 15.5h-247v-391h248z" />
    <glyph glyph-name="macron" unicode="&#xaf;" horiz-adv-x="840" 
d="M157 1295h550v-99h-550v99z" />
    <glyph glyph-name="degree" unicode="&#xb0;" horiz-adv-x="782" 
d="M90 1124q0 62 23.5 117t64.5 96t96 64.5t117 23.5t117 -23.5t96 -64.5t64.5 -96t23.5 -117t-23.5 -116.5t-64.5 -95.5t-96 -64.5t-117 -23.5t-117 23.5t-96 64.5t-64.5 95.5t-23.5 116.5zM208 1124q0 -38 14.5 -71t39 -58t58 -39t71.5 -14t71.5 14t58 39t39 58t14.5 71
t-14.5 71t-39 58t-58 39t-71.5 14t-71.5 -14t-58 -39t-39 -58t-14.5 -71z" />
    <glyph glyph-name="plusminus" unicode="&#xb1;" horiz-adv-x="1185" 
d="M1063 155v-130l-921 1v129h921zM664 1180v-398h396v-130h-396v-400h-131v400l-394 1v129h394v398h131z" />
    <glyph glyph-name="mu" unicode="&#xb5;" horiz-adv-x="1331" 
d="M1167 458q0 -245 -115 -366t-347 -121q-59 0 -113.5 13t-102 35.5t-87.5 53.5t-69 67v-484h-152v1362h153v-566q0 -80 27.5 -144t74.5 -108.5t109.5 -68.5t132.5 -24q81 0 143 19.5t104.5 61.5t64 109.5t21.5 163.5v556h156v-559z" />
    <glyph glyph-name="paragraph" unicode="&#xb6;" horiz-adv-x="1267" 
d="M624 -192v760h-142q-87 0 -163.5 31.5t-133 87t-89.5 131t-33 164.5q0 88 33 163.5t90 131t134 87.5t165 32h267v-1588h-128zM972 1396h129v-1h86v-129h-86v-1458h-129v1588z" />
    <glyph glyph-name="periodcentered" unicode="&#xb7;" horiz-adv-x="507" 
d="M148 480q0 42 29 71.5t76 29.5q23 0 42 -8t33 -22t22 -32t8 -39q0 -42 -29.5 -71.5t-75.5 -29.5q-47 0 -76 29.5t-29 71.5z" />
    <glyph glyph-name="cedilla" unicode="&#xb8;" horiz-adv-x="422" 
d="M267 27l86 -2l-49 -125q31 -8 59 -22t48.5 -35.5t32.5 -51t12 -67.5q0 -47 -20 -88t-52 -71t-72.5 -47t-82.5 -17t-78.5 6t-65.5 25l33 87q46 -20 100 -20q21 0 43 9.5t40.5 26t30 39t11.5 47.5q0 31 -14 52t-35.5 33.5t-48 17.5t-51.5 5z" />
    <glyph glyph-name="guillemotright" unicode="&#xbb;" horiz-adv-x="1184" 
d="M637 119l275 363l-276 362h164l275 -362l-275 -363h-163zM160 119l275 363l-275 362h163l276 -362l-276 -363h-163z" />
    <glyph glyph-name="questiondown" unicode="&#xbf;" horiz-adv-x="924" 
d="M570 627v-60q0 -53 -15 -98.5t-39.5 -85t-57.5 -74.5t-69 -68q-35 -32 -68.5 -60.5t-59.5 -58t-42 -60.5t-16 -67q0 -110 70.5 -172t198.5 -62q126 0 196.5 62.5t70.5 179.5h154q0 -86 -27.5 -155.5t-81.5 -118.5t-133.5 -76t-182.5 -27q-94 0 -171 26.5t-132 74.5
t-85.5 116t-30.5 151q0 63 21 112.5t55 90t76 75t83 68.5q65 53 106 107.5t41 123.5v56h139zM598 935q0 -21 -7.5 -39.5t-21.5 -32.5t-33.5 -22t-42.5 -8t-42 8t-33 22t-22 32.5t-8 39.5t8 39t22 32t33 22t42 8t42 -8t33 -22t22 -32t8 -39z" />
    <glyph glyph-name="multiply" unicode="&#xd7;" horiz-adv-x="1404" 
d="M1076 798l-281 -281l279 -280l-91 -92l-280 280l-283 -283l-93 92l283 284l-278 279l91 92l280 -280l280 282z" />
    <glyph glyph-name="divide" unicode="&#xf7;" horiz-adv-x="1404" 
d="M611 913q0 36 25 62.5t66 26.5q40 0 65.5 -26.5t25.5 -62.5t-25.5 -61.5t-66.5 -25.5q-19 0 -35.5 7t-28.5 18.5t-19 27.5t-7 34zM611 158q0 36 25 62.5t66 26.5q40 0 65.5 -26.5t25.5 -62.5t-25.5 -61.5t-66.5 -25.5q-40 0 -65 25.5t-25 61.5zM1162 603v-130l-921 1v129
h921z" />
    <glyph glyph-name="thorn" unicode="&#xfe;" horiz-adv-x="1341" 
d="M335 1408v-558q33 43 76 79t95.5 62t112.5 40.5t128 14.5q118 0 217 -42t171 -115t112.5 -170.5t40.5 -209.5t-41 -210t-113.5 -171t-172 -115t-217.5 -42q-66 0 -126 15t-112 40.5t-95 61.5t-76 78v-508h-154v1750h154zM1133 509q0 86 -31.5 159.5t-85.5 127t-127 84
t-157 30.5t-157 -30.5t-128 -84t-86.5 -127t-31.5 -159.5q0 -87 31.5 -160.5t86 -127.5t128 -84t156.5 -30q84 0 157 30.5t127.5 84t86 127t31.5 160.5z" />
    <glyph glyph-name="OE" unicode="&#x152;" horiz-adv-x="2274" 
d="M1241 113q-82 -61 -185 -100t-222 -39q-100 0 -193 25t-173.5 71t-147 110t-113.5 143t-73 169.5t-26 188.5q0 99 26 190t73 170t113.5 143t147 110t173.5 71t193 25q118 0 221.5 -39t185.5 -99v108h896v-140h-739v-478h643v-138h-643v-465h748v-139h-905v113zM834 112
q116 0 220.5 43t186.5 128v797q-81 85 -186 128.5t-221 43.5q-118 0 -221.5 -44t-181 -121t-122 -181t-44.5 -225q0 -120 44.5 -224t122 -180.5t181 -120.5t221.5 -44z" />
    <glyph glyph-name="florin" unicode="&#x192;" horiz-adv-x="795" 
d="M283 827h-176l17 132h177l9 55q11 67 28 130.5t45.5 116.5t71.5 91.5t107 56.5q85 24 170 14q27 -3 47.5 -11.5t25.5 -13.5l-60 -115q-7 3 -18 6q-9 2 -22 4.5t-30 2.5q-85 0 -134 -51.5t-66 -150.5l-24 -135h260l-17 -132h-260l-157 -941q-12 -80 -43.5 -148.5
t-82.5 -116t-121.5 -68.5t-161.5 -5q-27 3 -47 11.5t-26 13.5l60 117q4 -2 11 -5q6 -2 15 -4t22 -2q42 -2 78 7.5t65 34t49 65.5t31 102z" />
    <glyph glyph-name="circumflex" unicode="&#x2c6;" horiz-adv-x="785" 
d="M700 1220l-55 -86l-244 167l-244 -167l-56 86l299 205z" />
    <glyph glyph-name="tilde" unicode="&#x2dc;" horiz-adv-x="854" 
d="M768 1299q-45 -82 -99 -121.5t-118 -39.5q-43 0 -81 11.5t-72.5 26t-65 26t-57.5 11.5q-26 0 -51.5 -13.5t-49.5 -53.5l-70 50q35 66 91 100t131 20q33 -6 62.5 -17t57.5 -22.5t54.5 -20t52.5 -8.5q37 0 72.5 22t70.5 79z" />
    <glyph glyph-name="endash" unicode="&#x2013;" horiz-adv-x="943" 
d="M149 549h645v-132h-645v132z" />
    <glyph glyph-name="emdash" unicode="&#x2014;" horiz-adv-x="1638" 
d="M149 549h1340v-132h-1340v132z" />
    <glyph glyph-name="quotesinglbase" unicode="&#x201a;" horiz-adv-x="536" 
d="M376 186l-184 -466l-111 7l154 476z" />
    <glyph glyph-name="quotedblleft" unicode="&#x201c;" horiz-adv-x="887" 
d="M117 985l183 465l111 -6l-154 -476zM465 985l183 465l112 -6l-154 -476z" />
    <glyph glyph-name="quotedblright" unicode="&#x201d;" horiz-adv-x="859" 
d="M742 1433l-184 -465l-111 6l154 476zM394 1433l-184 -465l-112 6l154 476z" />
    <glyph glyph-name="quotedblbase" unicode="&#x201e;" horiz-adv-x="860" 
d="M379 186l-184 -466l-112 7l155 476zM727 186l-184 -466l-110 7l153 476z" />
    <glyph glyph-name="dagger" unicode="&#x2020;" horiz-adv-x="759" 
d="M57 919h247v478h150v-478h248v-131h-248v-1067h-150v1067h-247v131z" />
    <glyph glyph-name="perthousand" unicode="&#x2030;" horiz-adv-x="2402" 
d="M1260 -15q-72 0 -133.5 24.5t-106.5 68t-71 102t-26 127.5t26 128.5t71 103t106.5 68.5t133.5 25t133.5 -24.5t107 -68t71.5 -103t26 -129.5q0 -69 -26 -127.5t-71 -102t-107 -68t-134 -24.5zM1261 98q45 0 82.5 16t65 43.5t43 65.5t15.5 83q0 46 -15.5 85t-43.5 67.5
t-65.5 45t-82.5 16.5q-44 0 -82 -16t-65.5 -44.5t-43 -67t-15.5 -84.5q0 -45 15.5 -83.5t43.5 -66.5t65.5 -44t82.5 -16zM385 -1l832 1360h145l-833 -1360h-144zM437 731q-72 0 -133.5 24.5t-106.5 68t-71 102t-26 127.5t25.5 128.5t71 103t107 68.5t133.5 25t134 -25
t107 -68.5t71 -103t26 -129.5q0 -68 -26 -127t-71 -102t-107 -67.5t-134 -24.5zM438 844q45 0 82.5 15.5t65 43.5t43 66t15.5 82q0 46 -15.5 85.5t-43.5 68t-65.5 44.5t-82.5 16t-82.5 -16t-65 -44t-43 -67t-15.5 -85q0 -45 15.5 -83.5t43 -66t65.5 -43.5t83 -16zM1982 -15
q-72 0 -133.5 24.5t-106.5 68t-71 102t-26 127.5t26 128.5t71 103t106.5 68.5t133.5 25t133.5 -24.5t107 -68t71.5 -103t26 -129.5q0 -69 -26 -127.5t-71 -102t-107 -68t-134 -24.5zM1983 98q45 0 82.5 16t65 43.5t43 65.5t15.5 83q0 46 -15.5 85t-43.5 67.5t-65.5 45
t-82.5 16.5q-44 0 -82 -16t-65.5 -44.5t-43 -67t-15.5 -84.5q0 -45 15.5 -83.5t43.5 -66.5t65.5 -44t82.5 -16z" />
    <glyph glyph-name="guilsinglleft" unicode="&#x2039;" horiz-adv-x="715" 
d="M407 119l-276 363l276 362h163l-275 -362l275 -363h-163z" />
    <glyph glyph-name="guilsinglright" unicode="&#x203a;" horiz-adv-x="715" 
d="M151 119l275 363l-276 362h164l276 -362l-276 -363h-163z" />
    <glyph glyph-name="trademark" unicode="&#x2122;" horiz-adv-x="1612" 
d="M839 1159v-504h-119v729l101 2l269 -338l269 338l100 -2v-729h-119v504l-244 -291h-13zM270 1270h-221v114h567v-114h-220v-615h-126v615z" />
    <glyph glyph-name="dollar" unicode="$" horiz-adv-x="1218" 
d="M233 391q0 -55 28 -105.5t76 -89.5t113.5 -62t140.5 -23q195 0 295.5 67t100.5 197q0 69 -30.5 115.5t-84 76.5t-125 48.5t-153.5 32.5q-49 7 -103 16t-107 24t-101 38.5t-85 58.5t-58.5 84.5t-21.5 117.5q0 80 27 153t87 128.5t157 88.5t238 33q108 0 193.5 -28.5
t145.5 -79t92 -121t32 -154.5h-158q0 55 -22.5 99.5t-63.5 76.5t-100 49.5t-131 17.5q-99 0 -164 -22t-104 -57.5t-55 -80t-16 -90.5q0 -59 28.5 -98.5t79.5 -65.5t122 -41t156 -25q56 -10 113.5 -22.5t111.5 -32t101 -48t82 -69.5t55.5 -96t20.5 -128q0 -95 -38 -169.5
t-110 -126t-175.5 -79t-234.5 -27.5q-122 0 -217.5 37t-161 96t-99.5 134t-34 152h157zM528.882 1576.39h148.9v-255.021h-148.9v255.021zM529 42.3525h149v-252.525h-149v252.525z" />
    <glyph glyph-name="AE" unicode="&#xc6;" horiz-adv-x="2037" 
d="M993 317h-573l-220 -317h-183l933 1360h939v-140h-739v-459h643v-138h-643v-484h748v-139h-905v317zM515 454h478v697l-19 -37z" />
    <glyph glyph-name="Euro" unicode="&#x20ac;" horiz-adv-x="1181" 
d="M214 933q31 99 92.5 183.5t144.5 145.5t184.5 95.5t212.5 34.5q58 0 109 -9t92 -23v-145q-48 24 -100.5 35.5t-100.5 11.5q-82 0 -156.5 -24t-136.5 -67.5t-110 -104t-76 -133.5l477 -1v-100h-790v101h158zM846 523v-99l-474 1q29 -71 76.5 -130.5t109.5 -102t135.5 -66
t154.5 -23.5q48 0 100 10.5t101 34.5v-144q-43 -14 -94.5 -22t-106.5 -8q-111 0 -211 34t-183 94t-144 142.5t-94 180.5h-160v99z" />
    <glyph glyph-name="acute" unicode="&#xb4;" horiz-adv-x="479" 
d="M340 1386l-175 -237h-115l172 279z" />
    <glyph glyph-name="backslash" unicode="\" horiz-adv-x="853" 
d="M708 -202l-656 1635h156l657 -1635h-157z" />
    <glyph glyph-name="equal" unicode="=" horiz-adv-x="1404" 
d="M1162 844v-130l-921 1v129h921zM1162 376v-130h-921v130h921z" />
    <glyph glyph-name="greater" unicode="&#x3e;" horiz-adv-x="1244" 
d="M1073 570v-105l-816 -385v150l633 287l-633 288v149z" />
    <glyph glyph-name="at" unicode="@" 
d="M929 485l738 744q145 -187 145 -375q0 -108 -33.5 -202.5t-97.5 -166.5h-752zM818 467q-69 88 -104.5 183t-35.5 204q0 43 7.5 91t23.5 95t41 90t59 76h747zM868 422h756q-84 -72 -181 -107.5t-199 -35.5q-109 0 -203.5 38t-172.5 105zM1624 1274h-763q88 67 184 105
t199 38q56 0 106 -11t96 -30t90 -45.5t88 -56.5z" />
    <glyph glyph-name="brokenbar" unicode="&#xa6;" horiz-adv-x="502" 
d="M326 776h-150v815h150v-815zM176 459h150v-815h-150v815z" />
    <glyph glyph-name="onehalf" unicode="&#xbd;" 
d="M929 485l738 744q145 -187 145 -375q0 -108 -33.5 -202.5t-97.5 -166.5h-752zM818 467q-69 88 -104.5 183t-35.5 204q0 43 7.5 91t23.5 95t41 90t59 76h747zM868 422h756q-84 -72 -181 -107.5t-199 -35.5q-109 0 -203.5 38t-172.5 105zM1624 1274h-763q88 67 184 105
t199 38q56 0 106 -11t96 -30t90 -45.5t88 -56.5z" />
    <glyph glyph-name="quoteleft" unicode="&#x2018;" horiz-adv-x="530" 
d="M117 985l183 465l111 -6l-154 -476z" />
    <glyph glyph-name="quoteright" unicode="&#x2019;" horiz-adv-x="534" 
d="M401 1433l-184 -465l-110 6l153 476z" />
    <glyph glyph-name="daggerdbl" unicode="&#x2021;" horiz-adv-x="776" 
d="M65 919h246v478h151v-478h247v-131h-247v-461h247v-132h-247v-474h-151v474h-246v132h246v461h-246v131z" />
    <glyph glyph-name="uni00AD" unicode="&#xad;" horiz-adv-x="734" 
d="M149 549h435v-132h-435v132z" />
    <glyph glyph-name="ellipsis" unicode="&#x2026;" horiz-adv-x="1408" 
d="M148 81q0 21 7.5 39.5t21.5 32.5t33.5 22t42.5 8t42 -8t33 -22t22 -32.5t8 -39.5q0 -42 -29.5 -71.5t-75.5 -29.5q-47 0 -76 29.5t-29 71.5zM599 81q0 21 8 39.5t21.5 32.5t32.5 22t42 8q24 0 43.5 -8t33.5 -22t21.5 -32.5t7.5 -39.5q0 -42 -29 -71.5t-77 -29.5
q-23 0 -42 8t-32.5 22t-21.5 32t-8 39zM1050 81q0 21 7.5 39.5t21.5 32.5t33.5 22t42.5 8t42.5 -8t33.5 -22t21.5 -32.5t7.5 -39.5q0 -42 -29 -71.5t-76 -29.5q-23 0 -42 8t-33 22t-22 32t-8 39z" />
    <glyph glyph-name="bullet" unicode="&#x2022;" horiz-adv-x="673" 
d="M-431.11 -1438.37q0 -81.7568 -56.8457 -139.182q-56.8467 -57.4248 -148.976 -57.4248q-45.085 0 -82.3291 15.5732q-37.2432 15.5723 -64.6865 42.8252q-27.4434 27.252 -43.125 62.291q-15.6816 35.0381 -15.6816 75.917q0 81.7568 57.8262 139.182t147.996 57.4248
q92.1289 0 148.976 -57.4248q56.8457 -57.4248 56.8457 -139.182z" />
    <glyph glyph-name="Aring" unicode="&#xc5;" horiz-adv-x="1352" 
d="M474 1689q0 40 15 74.5t41.5 60t63 40t80.5 14.5q45 0 82 -14.5t63.5 -40t41 -60t14.5 -74.5q0 -38 -14.5 -71.5t-41 -58.5t-63.5 -39.5t-82 -14.5q-44 0 -80.5 14.5t-63 39.5t-41.5 58.5t-15 71.5zM570 1688q0 -20 8 -38t22 -31.5t33 -21.5t41 -8q47 0 76.5 29.5
t29.5 69.5q0 45 -29 75t-77 30q-22 0 -41 -8t-33 -22t-22 -33.5t-8 -41.5zM1027 318h-704l-135 -318h-167l578 1360h153l577 -1360h-167zM381 455h588l-288 679l-6 23l-5 -23z" />
    <glyph glyph-name="Aacute" unicode="&#xc1;" horiz-adv-x="1352" 
d="M1027 318h-704l-135 -318h-167l578 1360h153l577 -1360h-167zM381 455h588l-288 679l-6 23l-5 -23zM930 1732l-175 -237h-115l172 279z" />
    <glyph glyph-name="Agrave" unicode="&#xc0;" horiz-adv-x="1352" 
d="M1027 318h-704l-135 -318h-167l578 1360h153l577 -1360h-167zM381 455h588l-288 679l-6 23l-5 -23zM558 1830l172 -279h-116l-174 237z" />
    <glyph glyph-name="Atilde" unicode="&#xc3;" horiz-adv-x="1352" 
d="M1027 318h-704l-135 -318h-167l578 1360h153l577 -1360h-167zM381 455h588l-288 679l-6 23l-5 -23zM1007 1701q-45 -82 -99 -121.5t-118 -39.5q-43 0 -81 11.5t-72.5 26t-65 26t-57.5 11.5q-26 0 -51.5 -13.5t-49.5 -53.5l-70 50q35 66 91 100t131 20q33 -6 62.5 -17
t57.5 -22.5t54.5 -20t52.5 -8.5q37 0 72.5 22t70.5 79z" />
    <glyph glyph-name="Adieresis" unicode="&#xc4;" horiz-adv-x="1352" 
d="M1027 318h-704l-135 -318h-167l578 1360h153l577 -1360h-167zM381 455h588l-288 679l-6 23l-5 -23zM421 1670q0 34 25 57.5t63 23.5q40 0 64.5 -23.5t24.5 -57.5q0 -33 -24.5 -56t-64.5 -23q-39 0 -63.5 23t-24.5 56zM752 1670q0 34 24.5 57.5t62.5 23.5q41 0 65 -23.5
t24 -57.5q0 -33 -24.5 -56t-64.5 -23q-39 0 -63 23t-24 56z" />
    <glyph glyph-name="Acircumflex" unicode="&#xc2;" horiz-adv-x="1352" 
d="M1027 318h-704l-135 -318h-167l578 1360h153l577 -1360h-167zM381 455h588l-288 679l-6 23l-5 -23zM973 1622l-55 -86l-244 167l-244 -167l-56 86l299 205z" />
    <glyph glyph-name="Icircumflex" unicode="&#xce;" horiz-adv-x="517" 
d="M180 1360h157v-1360h-157v1360zM560 1622l-55 -86l-244 167l-244 -167l-56 86l299 205z" />
    <glyph glyph-name="Iacute" unicode="&#xcd;" horiz-adv-x="517" 
d="M180 1360h157v-1360h-157v1360zM497 1788l-175 -237h-115l172 279z" />
    <glyph glyph-name="Igrave" unicode="&#xcc;" horiz-adv-x="517" 
d="M180 1360h157v-1360h-157v1360zM145 1830l172 -279h-116l-174 237z" />
    <glyph glyph-name="Idieresis" unicode="&#xcf;" horiz-adv-x="517" 
d="M180 1360h157v-1360h-157v1360zM8 1670q0 34 25 57.5t63 23.5q40 0 64.5 -23.5t24.5 -57.5q0 -33 -24.5 -56t-64.5 -23q-39 0 -63.5 23t-24.5 56zM339 1670q0 34 24.5 57.5t62.5 23.5q41 0 65 -23.5t24 -57.5q0 -33 -24.5 -56t-64.5 -23q-39 0 -63 23t-24 56z" />
    <glyph glyph-name="afii10042" unicode="&#x428;" horiz-adv-x="2073" 
d="M180 1360h157v-1220h621v1220h156v-1220h622v1220h157v-1360h-1713v1360z" />
    <glyph glyph-name="Eacute" unicode="&#xc9;" horiz-adv-x="1167" 
d="M180 1360h896v-140h-739v-478h643v-138h-643v-465h748v-139h-905v1360zM871 1788l-175 -237h-115l172 279z" />
    <glyph glyph-name="Egrave" unicode="&#xc8;" horiz-adv-x="1167" 
d="M180 1360h896v-140h-739v-478h643v-138h-643v-465h748v-139h-905v1360zM545 1830l172 -279h-116l-174 237z" />
    <glyph glyph-name="Edieresis" unicode="&#xcb;" horiz-adv-x="1167" 
d="M180 1360h896v-140h-739v-478h643v-138h-643v-465h748v-139h-905v1360zM393 1670q0 34 25 57.5t63 23.5q40 0 64.5 -23.5t24.5 -57.5q0 -33 -24.5 -56t-64.5 -23q-39 0 -63.5 23t-24.5 56zM724 1670q0 34 24.5 57.5t62.5 23.5q41 0 65 -23.5t24 -57.5q0 -33 -24.5 -56
t-64.5 -23q-39 0 -63 23t-24 56z" />
    <glyph glyph-name="Ecircumflex" unicode="&#xca;" horiz-adv-x="1167" 
d="M180 1360h896v-140h-739v-478h643v-138h-643v-465h748v-139h-905v1360zM935 1622l-55 -86l-244 167l-244 -167l-56 86l299 205z" />
    <glyph glyph-name="afii10022" unicode="&#x415;" horiz-adv-x="1167" 
d="M180 1360h896v-140h-739v-478h643v-138h-643v-465h748v-139h-905v1360z" />
    <glyph glyph-name="afii10023" unicode="&#x401;" horiz-adv-x="1167" 
d="M374 1656q0 34 25 57.5t63 23.5q40 0 64.5 -23.5t24.5 -57.5q0 -33 -24.5 -56t-64.5 -23q-39 0 -63.5 23t-24.5 56zM705 1656q0 34 24.5 57.5t62.5 23.5q41 0 65 -23.5t24 -57.5q0 -33 -24.5 -56t-64.5 -23q-39 0 -63 23t-24 56zM180 1360h896v-140h-739v-478h643v-138
h-643v-465h748v-139h-905v1360z" />
    <glyph glyph-name="Ccedilla" unicode="&#xc7;" horiz-adv-x="1627" 
d="M1340 940q-34 72 -86.5 129.5t-118.5 98t-142.5 62.5t-158.5 22q-118 0 -221.5 -44t-181 -121t-122 -181t-44.5 -225q0 -120 44.5 -224t122 -180.5t181 -120.5t221.5 -44q81 0 157.5 21.5t142.5 61.5t118.5 97.5t86.5 129.5h164q-38 -106 -107.5 -189t-158.5 -140.5
t-193 -88t-210 -30.5q-100 0 -193 25t-173.5 71t-147 110t-113.5 143t-73 169.5t-26 188.5q0 99 26 190t73 170t113.5 143t147 110t173.5 71t193 25q106 0 209.5 -30t193 -87.5t159 -141t107.5 -191.5h-163zM823 15l86 -2l-49 -125q31 -8 59 -22t48.5 -35.5t32.5 -51
t12 -67.5q0 -47 -20 -88t-52 -71t-72.5 -47t-82.5 -17t-78.5 6t-65.5 25l33 87q46 -20 100 -20q21 0 43 9.5t40.5 26t30 39t11.5 47.5q0 31 -14 52t-35.5 33.5t-48 17.5t-51.5 5z" />
    <glyph glyph-name="Oacute" unicode="&#xd3;" horiz-adv-x="1670" 
d="M108 681q0 99 26 190t73 170t113.5 143t147 110t173.5 71t193 25t193 -25t173.5 -71t147 -110t114 -143t73.5 -170t26 -190q0 -98 -26 -188.5t-73.5 -169.5t-114 -143t-147 -110t-173.5 -71t-193 -25t-193 25t-173.5 71t-147 110t-113.5 143t-73 169.5t-26 188.5z
M265 681q0 -120 44.5 -224t122 -180.5t181 -120.5t221.5 -44t222 44t181 120.5t122 180.5t45 224q0 121 -45 225t-122 181t-181 121t-222 44t-221.5 -44t-181 -121t-122 -181t-44.5 -225zM1041 1788l-175 -237h-115l172 279z" />
    <glyph glyph-name="Ocircumflex" unicode="&#xd4;" horiz-adv-x="1670" 
d="M108 681q0 99 26 190t73 170t113.5 143t147 110t173.5 71t193 25t193 -25t173.5 -71t147 -110t114 -143t73.5 -170t26 -190q0 -98 -26 -188.5t-73.5 -169.5t-114 -143t-147 -110t-173.5 -71t-193 -25t-193 25t-173.5 71t-147 110t-113.5 143t-73 169.5t-26 188.5z
M265 681q0 -120 44.5 -224t122 -180.5t181 -120.5t221.5 -44t222 44t181 120.5t122 180.5t45 224q0 121 -45 225t-122 181t-181 121t-222 44t-221.5 -44t-181 -121t-122 -181t-44.5 -225zM1119 1637l-55 -86l-244 167l-244 -167l-56 86l299 205z" />
    <glyph glyph-name="Odieresis" unicode="&#xd6;" horiz-adv-x="1670" 
d="M108 681q0 99 26 190t73 170t113.5 143t147 110t173.5 71t193 25t193 -25t173.5 -71t147 -110t114 -143t73.5 -170t26 -190q0 -98 -26 -188.5t-73.5 -169.5t-114 -143t-147 -110t-173.5 -71t-193 -25t-193 25t-173.5 71t-147 110t-113.5 143t-73 169.5t-26 188.5z
M265 681q0 -120 44.5 -224t122 -180.5t181 -120.5t221.5 -44t222 44t181 120.5t122 180.5t45 224q0 121 -45 225t-122 181t-181 121t-222 44t-221.5 -44t-181 -121t-122 -181t-44.5 -225zM548 1670q0 34 25 57.5t63 23.5q40 0 64.5 -23.5t24.5 -57.5q0 -33 -24.5 -56
t-64.5 -23q-39 0 -63.5 23t-24.5 56zM879 1670q0 34 24.5 57.5t62.5 23.5q41 0 65 -23.5t24 -57.5q0 -33 -24.5 -56t-64.5 -23q-39 0 -63 23t-24 56z" />
    <glyph glyph-name="Ograve" unicode="&#xd2;" horiz-adv-x="1670" 
d="M108 681q0 99 26 190t73 170t113.5 143t147 110t173.5 71t193 25t193 -25t173.5 -71t147 -110t114 -143t73.5 -170t26 -190q0 -98 -26 -188.5t-73.5 -169.5t-114 -143t-147 -110t-173.5 -71t-193 -25t-193 25t-173.5 71t-147 110t-113.5 143t-73 169.5t-26 188.5z
M265 681q0 -120 44.5 -224t122 -180.5t181 -120.5t221.5 -44t222 44t181 120.5t122 180.5t45 224q0 121 -45 225t-122 181t-181 121t-222 44t-221.5 -44t-181 -121t-122 -181t-44.5 -225zM688 1830l172 -279h-116l-174 237z" />
    <glyph glyph-name="Otilde" unicode="&#xd5;" horiz-adv-x="1670" 
d="M108 681q0 99 26 190t73 170t113.5 143t147 110t173.5 71t193 25t193 -25t173.5 -71t147 -110t114 -143t73.5 -170t26 -190q0 -98 -26 -188.5t-73.5 -169.5t-114 -143t-147 -110t-173.5 -71t-193 -25t-193 25t-173.5 71t-147 110t-113.5 143t-73 169.5t-26 188.5z
M265 681q0 -120 44.5 -224t122 -180.5t181 -120.5t221.5 -44t222 44t181 120.5t122 180.5t45 224q0 121 -45 225t-122 181t-181 121t-222 44t-221.5 -44t-181 -121t-122 -181t-44.5 -225zM1173 1701q-45 -82 -99 -121.5t-118 -39.5q-43 0 -81 11.5t-72.5 26t-65 26
t-57.5 11.5q-26 0 -51.5 -13.5t-49.5 -53.5l-70 50q35 66 91 100t131 20q33 -6 62.5 -17t57.5 -22.5t54.5 -20t52.5 -8.5q37 0 72.5 22t70.5 79z" />
    <glyph glyph-name="Oslash" unicode="&#xd8;" horiz-adv-x="1670" 
d="M108 681q0 99 26 190t73 170t113.5 143t147 110t173.5 71t193 25q103 0 196 -25.5t175 -73.5l122 152l120 -92l-119 -149q54 -48 97 -106.5t73 -124.5t46.5 -139t16.5 -151q0 -98 -26 -188.5t-73.5 -169.5t-114 -143t-147 -110t-173.5 -71t-193 -25q-111 0 -211 30
t-186 84l-128 -161l-120 92l130 162q-99 97 -155 224.5t-56 275.5zM1404 681q0 121 -45 225t-123 182l-709 -888q67 -42 144.5 -65t162.5 -23q118 0 222 44t181 120.5t122 180.5t45 224zM265 681q0 -113 38.5 -210.5t107.5 -173.5l705 882q-63 35 -134 54t-148 19
q-118 0 -221.5 -44t-181 -121t-122 -181t-44.5 -225z" />
    <glyph glyph-name="Yacute" unicode="&#xdd;" horiz-adv-x="1317" 
d="M1291 1360l-554 -837l1 -523h-158v522l-553 838h187l444 -694h2l443 694h188zM901 1737l-175 -237h-115l172 279z" />
    <glyph glyph-name="Ydieresis" unicode="&#x178;" horiz-adv-x="1317" 
d="M1291 1360l-554 -837l1 -523h-158v522l-553 838h187l444 -694h2l443 694h188zM412 1620q0 34 25 57.5t63 23.5q40 0 64.5 -23.5t24.5 -57.5q0 -33 -24.5 -56t-64.5 -23q-39 0 -63.5 23t-24.5 56zM743 1620q0 34 24.5 57.5t62.5 23.5q41 0 65 -23.5t24 -57.5
q0 -33 -24.5 -56t-64.5 -23q-39 0 -63 23t-24 56z" />
    <glyph glyph-name="afii10037" unicode="&#x423;" horiz-adv-x="1154" 
d="M232 108q1 0 7 -0.5t13 -1t13.5 -1t8.5 -0.5q52 0 87.5 18t54.5 63l78 166l-458 1008h174l368 -834l369 834h173l-556 -1224q-38 -83 -111.5 -125.5t-173.5 -42.5q-20 0 -39.5 2t-33.5 4z" />
    <glyph glyph-name="Scaron" unicode="&#x160;" horiz-adv-x="1252" 
d="M601 1540l-299 205l56 86l244 -167l244 167l55 -86zM244 391q0 -55 28 -105.5t76 -89.5t113.5 -62t140.5 -23q195 0 295.5 67t100.5 197q0 69 -30.5 115.5t-84 76.5t-125 48.5t-153.5 32.5q-49 7 -103 16t-107 24t-101 38.5t-85 58.5t-58.5 84.5t-21.5 117.5q0 80 27 153
t87 128.5t157 88.5t238 33q108 0 193.5 -28.5t145.5 -79t92 -121t32 -154.5h-158q0 55 -22.5 99.5t-63.5 76.5t-100 49.5t-131 17.5q-99 0 -164 -22t-104 -57.5t-55 -80t-16 -90.5q0 -59 28.5 -98.5t79.5 -65.5t122 -41t156 -25q56 -10 113.5 -22.5t111.5 -32t101 -48
t82 -69.5t55.5 -96t20.5 -128q0 -95 -38 -169.5t-110 -126t-175.5 -79t-234.5 -27.5q-122 0 -217.5 37t-161 96t-99.5 134t-34 152h157z" />
    <glyph glyph-name="Uacute" unicode="&#xda;" horiz-adv-x="1416" 
d="M1108 1361h158v-834q0 -123 -42 -225t-116 -175t-177 -113.5t-224 -40.5q-118 0 -220 39t-177 111.5t-118 175t-43 228.5v834h156v-833q0 -85 26.5 -160.5t77.5 -132.5t126 -90t172 -33q94 0 168 32.5t126 88.5t79.5 131t27.5 161v836zM934 1788l-175 -237h-115l172 279z
" />
    <glyph glyph-name="Ugrave" unicode="&#xd9;" horiz-adv-x="1416" 
d="M1108 1361h158v-834q0 -123 -42 -225t-116 -175t-177 -113.5t-224 -40.5q-118 0 -220 39t-177 111.5t-118 175t-43 228.5v834h156v-833q0 -85 26.5 -160.5t77.5 -132.5t126 -90t172 -33q94 0 168 32.5t126 88.5t79.5 131t27.5 161v836zM607 1830l172 -279h-116l-174 237z
" />
    <glyph glyph-name="Udieresis" unicode="&#xdc;" horiz-adv-x="1416" 
d="M1108 1361h158v-834q0 -123 -42 -225t-116 -175t-177 -113.5t-224 -40.5q-118 0 -220 39t-177 111.5t-118 175t-43 228.5v834h156v-833q0 -85 26.5 -160.5t77.5 -132.5t126 -90t172 -33q94 0 168 32.5t126 88.5t79.5 131t27.5 161v836zM434 1670q0 34 25 57.5t63 23.5
q40 0 64.5 -23.5t24.5 -57.5q0 -33 -24.5 -56t-64.5 -23q-39 0 -63.5 23t-24.5 56zM765 1670q0 34 24.5 57.5t62.5 23.5q41 0 65 -23.5t24 -57.5q0 -33 -24.5 -56t-64.5 -23q-39 0 -63 23t-24 56z" />
    <glyph glyph-name="Ucircumflex" unicode="&#xdb;" horiz-adv-x="1416" 
d="M1108 1361h158v-834q0 -123 -42 -225t-116 -175t-177 -113.5t-224 -40.5q-118 0 -220 39t-177 111.5t-118 175t-43 228.5v834h156v-833q0 -85 26.5 -160.5t77.5 -132.5t126 -90t172 -33q94 0 168 32.5t126 88.5t79.5 131t27.5 161v836zM999 1622l-55 -86l-244 167
l-244 -167l-56 86l299 205z" />
    <glyph glyph-name="Uhungarumlaut" unicode="&#x170;" horiz-adv-x="1416" 
d="M745 1824l-171 -309l-95 6l138 307zM1062 1824l-172 -309l-95 6l139 307zM1108 1361h158v-834q0 -123 -42 -225t-116 -175t-177 -113.5t-224 -40.5q-118 0 -220 39t-177 111.5t-118 175t-43 228.5v834h156v-833q0 -85 26.5 -160.5t77.5 -132.5t126 -90t172 -33
q94 0 168 32.5t126 88.5t79.5 131t27.5 161v836z" />
    <glyph glyph-name="Zcaron" unicode="&#x17d;" horiz-adv-x="1287" 
d="M680 1540l-299 205l56 86l244 -167l244 167l55 -86zM109 0l-2 124l856 1098h-812v138h1019v-121l-857 -1101h898v-138h-1102z" />
    <glyph glyph-name="exclam" unicode="!" horiz-adv-x="563" 
d="M203 667v693h154v-694l-19 -279h-116zM177 81q0 42 29 72t75 30q24 0 43.5 -8t33.5 -22t21.5 -32.5t7.5 -39.5q0 -42 -29 -71.5t-77 -29.5q-23 0 -42 8t-33 22t-21.5 32t-7.5 39z" />
    <glyph glyph-name="quotedbl" unicode="&#x22;" horiz-adv-x="803" 
d="M318 864q-31 0 -59.5 -0.5t-59.5 -0.5l-13 535h147zM606 864q-32 0 -60.5 -0.5t-59.5 -0.5l-13 535h147z" />
    <glyph glyph-name="numbersign" unicode="#" horiz-adv-x="1215" 
d="M298 363h-210l3 119h228l59 334h-222l2 119h241l75 425h138l-74 -425h245l75 425h138l-75 -425h200l-2 -119h-219l-58 -334h211l-2 -119h-230l-61 -349h-139l61 349h-244l-61 -349h-140zM459 482h244l59 334h-245z" />
    <glyph glyph-name="R" unicode="R" horiz-adv-x="1278" 
d="M739 514h-402v-514h-157v1360h575q97 0 179 -30.5t141.5 -86t92.5 -133.5t33 -174q0 -77 -21.5 -142t-60.5 -117t-94.5 -88.5t-122.5 -55.5l328 -533h-182zM752 652q63 0 116.5 20.5t92.5 57.5t61 89.5t22 116.5q0 63 -22.5 116t-62 90.5t-93.5 58.5t-117 21h-412v-570
h415z" />
    <glyph glyph-name="N" unicode="N" horiz-adv-x="1512" 
d="M1333 0h-133l-863 1082v-1082h-157v1360h130l866 -1085v1085h157v-1360z" />
    <glyph glyph-name="f" unicode="f" horiz-adv-x="774" 
d="M264 882h-211v136h211v52q0 69 15 135.5t52.5 118.5t100.5 84t159 32h140v-129h-108q-58 0 -97 -18.5t-63 -51.5t-34 -78t-10 -98v-47h306v-136h-306v-882h-155v882z" />
    <glyph glyph-name="m" unicode="m" horiz-adv-x="1971" 
d="M1826 0h-154v556q0 92 -19 159t-54 110.5t-84 64t-110 20.5q-70 0 -129.5 -23.5t-102.5 -68t-67.5 -109t-24.5 -145.5v-564h-155v556q0 92 -19 159t-53.5 110.5t-84 64t-110.5 20.5q-70 0 -129.5 -23.5t-102.5 -68t-67.5 -109t-24.5 -146.5v-563h-154v1018h128l13 -135
q28 35 65 64.5t82 51.5t98 34t113 12q116 0 203.5 -50t138.5 -145q28 41 67.5 76.5t90 62t111 41.5t131.5 15q93 0 168 -30.5t127.5 -91.5t80.5 -151t28 -210v-562z" />
    <glyph glyph-name="v" unicode="v" horiz-adv-x="1132" 
d="M1070 1018l-440 -1018h-144l-440 1018h165l346 -816l347 816h166z" />
    <glyph glyph-name="a" unicode="a" horiz-adv-x="1403" 
d="M109 509q0 112 40.5 209.5t113 170.5t172.5 115t218 42q69 0 130.5 -16t114.5 -43t96.5 -64t75.5 -79l11 174h134v-1018h-134l-12 173q-32 -42 -75.5 -78.5t-97 -64t-115 -43t-129.5 -15.5q-118 0 -217.5 42t-172 114.5t-113 170.5t-40.5 210zM263 509q0 -87 31.5 -160.5
t86 -127t128 -84t156.5 -30.5q84 0 157 30t128 84t86.5 127.5t31.5 160.5q0 86 -32 159.5t-86.5 127t-128 84t-156.5 30.5q-84 0 -157.5 -30.5t-127.5 -84t-85.5 -127t-31.5 -159.5z" />
    <glyph glyph-name="aacute" unicode="&#xe1;" horiz-adv-x="1403" 
d="M109 509q0 112 40.5 209.5t113 170.5t172.5 115t218 42q69 0 130.5 -16t114.5 -43t96.5 -64t75.5 -79l11 174h134v-1018h-134l-12 173q-32 -42 -75.5 -78.5t-97 -64t-115 -43t-129.5 -15.5q-118 0 -217.5 42t-172 114.5t-113 170.5t-40.5 210zM263 509q0 -87 31.5 -160.5
t86 -127t128 -84t156.5 -30.5q84 0 157 30t128 84t86.5 127.5t31.5 160.5q0 86 -32 159.5t-86.5 127t-128 84t-156.5 30.5q-84 0 -157.5 -30.5t-127.5 -84t-85.5 -127t-31.5 -159.5zM876 1386l-175 -237h-115l172 279z" />
    <glyph glyph-name="acircumflex" unicode="&#xe2;" horiz-adv-x="1403" 
d="M109 509q0 112 40.5 209.5t113 170.5t172.5 115t218 42q69 0 130.5 -16t114.5 -43t96.5 -64t75.5 -79l11 174h134v-1018h-134l-12 173q-32 -42 -75.5 -78.5t-97 -64t-115 -43t-129.5 -15.5q-118 0 -217.5 42t-172 114.5t-113 170.5t-40.5 210zM263 509q0 -87 31.5 -160.5
t86 -127t128 -84t156.5 -30.5q84 0 157 30t128 84t86.5 127.5t31.5 160.5q0 86 -32 159.5t-86.5 127t-128 84t-156.5 30.5q-84 0 -157.5 -30.5t-127.5 -84t-85.5 -127t-31.5 -159.5zM938 1220l-55 -86l-244 167l-244 -167l-56 86l299 205z" />
    <glyph glyph-name="adieresis" unicode="&#xe4;" horiz-adv-x="1403" 
d="M109 509q0 112 40.5 209.5t113 170.5t172.5 115t218 42q69 0 130.5 -16t114.5 -43t96.5 -64t75.5 -79l11 174h134v-1018h-134l-12 173q-32 -42 -75.5 -78.5t-97 -64t-115 -43t-129.5 -15.5q-118 0 -217.5 42t-172 114.5t-113 170.5t-40.5 210zM263 509q0 -87 31.5 -160.5
t86 -127t128 -84t156.5 -30.5q84 0 157 30t128 84t86.5 127.5t31.5 160.5q0 86 -32 159.5t-86.5 127t-128 84t-156.5 30.5q-84 0 -157.5 -30.5t-127.5 -84t-85.5 -127t-31.5 -159.5zM385 1268q0 34 25 57.5t63 23.5q40 0 64.5 -23.5t24.5 -57.5q0 -33 -24.5 -56t-64.5 -23
q-39 0 -63.5 23t-24.5 56zM716 1268q0 34 24.5 57.5t62.5 23.5q41 0 65 -23.5t24 -57.5q0 -33 -24.5 -56t-64.5 -23q-39 0 -63 23t-24 56z" />
    <glyph glyph-name="agrave" unicode="&#xe0;" horiz-adv-x="1403" 
d="M109 509q0 112 40.5 209.5t113 170.5t172.5 115t218 42q69 0 130.5 -16t114.5 -43t96.5 -64t75.5 -79l11 174h134v-1018h-134l-12 173q-32 -42 -75.5 -78.5t-97 -64t-115 -43t-129.5 -15.5q-118 0 -217.5 42t-172 114.5t-113 170.5t-40.5 210zM263 509q0 -87 31.5 -160.5
t86 -127t128 -84t156.5 -30.5q84 0 157 30t128 84t86.5 127.5t31.5 160.5q0 86 -32 159.5t-86.5 127t-128 84t-156.5 30.5q-84 0 -157.5 -30.5t-127.5 -84t-85.5 -127t-31.5 -159.5zM544 1428l172 -279h-116l-174 237z" />
    <glyph glyph-name="aring" unicode="&#xe5;" horiz-adv-x="1403" 
d="M482 1350q0 40 15 74.5t41.5 60t63 40t80.5 14.5q45 0 82 -14.5t63.5 -40t41 -60t14.5 -74.5q0 -38 -14.5 -71.5t-41 -58.5t-63.5 -39.5t-82 -14.5q-44 0 -80.5 14.5t-63 39.5t-41.5 58.5t-15 71.5zM578 1349q0 -20 8 -38t22 -31.5t33 -21.5t41 -8q47 0 76.5 29.5
t29.5 69.5q0 45 -29 75t-77 30q-22 0 -41 -8t-33 -22t-22 -33.5t-8 -41.5zM109 509q0 112 40.5 209.5t113 170.5t172.5 115t218 42q69 0 130.5 -16t114.5 -43t96.5 -64t75.5 -79l11 174h134v-1018h-134l-12 173q-32 -42 -75.5 -78.5t-97 -64t-115 -43t-129.5 -15.5
q-118 0 -217.5 42t-172 114.5t-113 170.5t-40.5 210zM263 509q0 -87 31.5 -160.5t86 -127t128 -84t156.5 -30.5q84 0 157 30t128 84t86.5 127.5t31.5 160.5q0 86 -32 159.5t-86.5 127t-128 84t-156.5 30.5q-84 0 -157.5 -30.5t-127.5 -84t-85.5 -127t-31.5 -159.5z" />
    <glyph glyph-name="atilde" unicode="&#xe3;" horiz-adv-x="1403" 
d="M109 509q0 112 40.5 209.5t113 170.5t172.5 115t218 42q69 0 130.5 -16t114.5 -43t96.5 -64t75.5 -79l11 174h134v-1018h-134l-12 173q-32 -42 -75.5 -78.5t-97 -64t-115 -43t-129.5 -15.5q-118 0 -217.5 42t-172 114.5t-113 170.5t-40.5 210zM263 509q0 -87 31.5 -160.5
t86 -127t128 -84t156.5 -30.5q84 0 157 30t128 84t86.5 127.5t31.5 160.5q0 86 -32 159.5t-86.5 127t-128 84t-156.5 30.5q-84 0 -157.5 -30.5t-127.5 -84t-85.5 -127t-31.5 -159.5zM996 1320q-45 -82 -99 -121.5t-118 -39.5q-43 0 -81 11.5t-72.5 26t-65 26t-57.5 11.5
q-26 0 -51.5 -13.5t-49.5 -53.5l-70 50q35 66 91 100t131 20q33 -6 62.5 -17t57.5 -22.5t54.5 -20t52.5 -8.5q37 0 72.5 22t70.5 79z" />
    <glyph glyph-name="ae" unicode="&#xe6;" horiz-adv-x="2307" 
d="M109 509q0 112 40.5 209.5t113 170.5t172.5 115t218 42q69 0 130.5 -16t114.5 -43t96.5 -64t75.5 -79l11 174h134v-1018h-134l-12 173q-32 -42 -75.5 -78.5t-97 -64t-115 -43t-129.5 -15.5q-118 0 -217.5 42t-172 114.5t-113 170.5t-40.5 210zM263 509q0 -87 31.5 -160.5
t86 -127t128 -84t156.5 -30.5q84 0 157 30t128 84t86.5 127.5t31.5 160.5q0 86 -32 159.5t-86.5 127t-128 84t-156.5 30.5q-84 0 -157.5 -30.5t-127.5 -84t-85.5 -127t-31.5 -159.5zM1065 509q0 112 42 209.5t116.5 170.5t175.5 115t219 42t219.5 -42t175.5 -114.5
t116.5 -170.5t42.5 -210v-23h-1l-3 -25h-952q9 -82 46 -148.5t92 -113t123.5 -72t141.5 -25.5q56 0 107 13.5t94.5 38.5t78.5 60.5t59 78.5h168q-29 -67 -77.5 -126t-114 -102.5t-145.5 -68.5t-171 -25q-118 0 -219 42t-175.5 115t-116.5 171t-42 210zM1619 919
q-79 0 -147 -26t-120.5 -71.5t-87 -108.5t-45.5 -137h795q-11 73 -45.5 136t-86 109t-119 72t-144.5 26z" />
    <glyph glyph-name="b" unicode="b" horiz-adv-x="1397" 
d="M1288 509q0 -112 -41 -210t-113.5 -171t-172 -115t-217.5 -42q-68 0 -130 16t-115 43t-97 64t-76 79l-11 -173h-134v1408h154v-558q33 43 76 79t95.5 62t112.5 40.5t128 14.5q118 0 217 -42t171 -115t112.5 -170.5t40.5 -209.5zM1134 509q0 86 -31.5 159.5t-86 127
t-127.5 84t-157 30.5t-157 -30.5t-128 -84t-86.5 -127t-31.5 -159.5q0 -87 31.5 -160.5t86 -127.5t128 -84t156.5 -30q84 0 157 30.5t128 84t86.5 127t31.5 160.5z" />
    <glyph glyph-name="d" unicode="d" horiz-adv-x="1403" 
d="M109 509q0 112 40 209.5t112 170.5t171.5 115t217.5 42q67 0 127.5 -14.5t112.5 -41t95.5 -62.5t76.5 -78v558h153v-1408h-134l-12 179q-32 -44 -76 -82t-97 -66t-114.5 -44t-129.5 -16q-117 0 -216.5 42t-172 115t-113.5 171t-41 210zM263 509q0 -87 31.5 -160.5
t86 -127t128 -84t156.5 -30.5q84 0 157 30t128 84t86.5 127.5t31.5 160.5q0 86 -32 159.5t-86.5 127t-128 84t-156.5 30.5q-84 0 -157.5 -30.5t-127.5 -84t-85.5 -127t-31.5 -159.5z" />
    <glyph glyph-name="e" unicode="e" horiz-adv-x="1325" 
d="M111 509q0 112 42 209.5t116.5 170.5t175.5 115t219 42t219.5 -42t175.5 -114.5t116.5 -170.5t42.5 -210v-23h-1l-3 -25h-952q9 -82 46 -148.5t92 -113t123.5 -72t141.5 -25.5q56 0 107 13.5t94.5 38.5t78.5 60.5t59 78.5h168q-29 -67 -77.5 -126t-114 -102.5
t-145.5 -68.5t-171 -25q-118 0 -219 42t-175.5 115t-116.5 171t-42 210zM665 919q-79 0 -147 -26t-120.5 -71.5t-87 -108.5t-45.5 -137h795q-11 73 -45.5 136t-86 109t-119 72t-144.5 26z" />
    <glyph glyph-name="eacute" unicode="&#xe9;" horiz-adv-x="1325" 
d="M111 509q0 112 42 209.5t116.5 170.5t175.5 115t219 42t219.5 -42t175.5 -114.5t116.5 -170.5t42.5 -210v-23h-1l-3 -25h-952q9 -82 46 -148.5t92 -113t123.5 -72t141.5 -25.5q56 0 107 13.5t94.5 38.5t78.5 60.5t59 78.5h168q-29 -67 -77.5 -126t-114 -102.5
t-145.5 -68.5t-171 -25q-118 0 -219 42t-175.5 115t-116.5 171t-42 210zM665 919q-79 0 -147 -26t-120.5 -71.5t-87 -108.5t-45.5 -137h795q-11 73 -45.5 136t-86 109t-119 72t-144.5 26zM924 1386l-175 -237h-115l172 279z" />
    <glyph glyph-name="ecircumflex" unicode="&#xea;" horiz-adv-x="1325" 
d="M111 509q0 112 42 209.5t116.5 170.5t175.5 115t219 42t219.5 -42t175.5 -114.5t116.5 -170.5t42.5 -210v-23h-1l-3 -25h-952q9 -82 46 -148.5t92 -113t123.5 -72t141.5 -25.5q56 0 107 13.5t94.5 38.5t78.5 60.5t59 78.5h168q-29 -67 -77.5 -126t-114 -102.5
t-145.5 -68.5t-171 -25q-118 0 -219 42t-175.5 115t-116.5 171t-42 210zM665 919q-79 0 -147 -26t-120.5 -71.5t-87 -108.5t-45.5 -137h795q-11 73 -45.5 136t-86 109t-119 72t-144.5 26zM981 1220l-55 -86l-244 167l-244 -167l-56 86l299 205z" />
    <glyph glyph-name="edieresis" unicode="&#xeb;" horiz-adv-x="1325" 
d="M111 509q0 112 42 209.5t116.5 170.5t175.5 115t219 42t219.5 -42t175.5 -114.5t116.5 -170.5t42.5 -210v-23h-1l-3 -25h-952q9 -82 46 -148.5t92 -113t123.5 -72t141.5 -25.5q56 0 107 13.5t94.5 38.5t78.5 60.5t59 78.5h168q-29 -67 -77.5 -126t-114 -102.5
t-145.5 -68.5t-171 -25q-118 0 -219 42t-175.5 115t-116.5 171t-42 210zM665 919q-79 0 -147 -26t-120.5 -71.5t-87 -108.5t-45.5 -137h795q-11 73 -45.5 136t-86 109t-119 72t-144.5 26zM413 1268q0 34 25 57.5t63 23.5q40 0 64.5 -23.5t24.5 -57.5q0 -33 -24.5 -56
t-64.5 -23q-39 0 -63.5 23t-24.5 56zM744 1268q0 34 24.5 57.5t62.5 23.5q41 0 65 -23.5t24 -57.5q0 -33 -24.5 -56t-64.5 -23q-39 0 -63 23t-24 56z" />
    <glyph glyph-name="egrave" unicode="&#xe8;" horiz-adv-x="1325" 
d="M111 509q0 112 42 209.5t116.5 170.5t175.5 115t219 42t219.5 -42t175.5 -114.5t116.5 -170.5t42.5 -210v-23h-1l-3 -25h-952q9 -82 46 -148.5t92 -113t123.5 -72t141.5 -25.5q56 0 107 13.5t94.5 38.5t78.5 60.5t59 78.5h168q-29 -67 -77.5 -126t-114 -102.5
t-145.5 -68.5t-171 -25q-118 0 -219 42t-175.5 115t-116.5 171t-42 210zM665 919q-79 0 -147 -26t-120.5 -71.5t-87 -108.5t-45.5 -137h795q-11 73 -45.5 136t-86 109t-119 72t-144.5 26zM585 1428l172 -279h-116l-174 237z" />
    <glyph glyph-name="g" unicode="g" horiz-adv-x="1400" 
d="M107 509q0 112 40.5 209.5t113 170.5t172.5 115t218 42q69 0 131.5 -16t116 -44t96.5 -65.5t75 -79.5l15 177h128v-897q0 -63 -11.5 -127.5t-37 -124.5t-66.5 -113t-100 -92t-137 -61.5t-178 -22.5q-85 0 -155 16t-126.5 43.5t-99.5 64.5t-73.5 79t-48.5 87.5t-25 90.5
h148q13 -46 42.5 -91t76.5 -80t112 -57t148 -22q80 0 139.5 19.5t102 51.5t69.5 73.5t42 85.5t21 87.5t6 79.5v75q-33 -42 -77 -79t-98 -64.5t-116.5 -43.5t-132.5 -16q-113 0 -210.5 40.5t-168.5 112t-111.5 168t-40.5 208.5zM261 509q0 -87 31.5 -160.5t86.5 -127t128 -84
t157 -30.5q83 0 156.5 30t128 84t86 127.5t31.5 160.5q0 86 -32 159.5t-86.5 127t-128 84t-156.5 30.5q-84 0 -157.5 -30.5t-127.5 -84t-85.5 -127t-31.5 -159.5z" />
    <glyph glyph-name="h" unicode="h" horiz-adv-x="1323" 
d="M1167 0h-155v556q0 96 -22 163.5t-64 109.5t-104 61.5t-143 19.5q-70 0 -132.5 -24t-109.5 -69t-74.5 -109t-27.5 -144v-565h-154v1409h153l-1 -531q29 36 69 67t87.5 53.5t102 35.5t113.5 13q232 0 347 -121t115 -366v-559z" />
    <glyph glyph-name="i" unicode="i" horiz-adv-x="546" 
d="M181 1018h155v-1018h-155v1018zM152 1325q0 40 29.5 69t77.5 29q24 0 44 -8t34.5 -21.5t22.5 -31t8 -37.5q0 -42 -30.5 -70t-78.5 -28t-77.5 28.5t-29.5 69.5z" />
    <glyph glyph-name="iacute" unicode="&#xed;" horiz-adv-x="546" 
d="M181 1018h155v-1018h-155v1018zM482 1386l-175 -237h-115l172 279z" />
    <glyph glyph-name="icircumflex" unicode="&#xee;" horiz-adv-x="546" 
d="M181 1018h155v-1018h-155v1018zM544 1220l-55 -86l-244 167l-244 -167l-56 86l299 205z" />
    <glyph glyph-name="idieresis" unicode="&#xef;" horiz-adv-x="546" 
d="M181 1018h155v-1018h-155v1018zM-10 1268q0 34 25 57.5t63 23.5q40 0 64.5 -23.5t24.5 -57.5q0 -33 -24.5 -56t-64.5 -23q-39 0 -63.5 23t-24.5 56zM321 1268q0 34 24.5 57.5t62.5 23.5q41 0 65 -23.5t24 -57.5q0 -33 -24.5 -56t-64.5 -23q-39 0 -63 23t-24 56z" />
    <glyph glyph-name="igrave" unicode="&#xec;" horiz-adv-x="546" 
d="M181 1018h155v-1018h-155v1018zM154 1428l172 -279h-116l-174 237z" />
    <glyph glyph-name="j" unicode="j" horiz-adv-x="547" 
d="M153 1325q0 40 29.5 69t77.5 29q24 0 44 -8t34 -21.5t22 -31t8 -37.5q0 -42 -30 -70t-78 -28t-77.5 28.5t-29.5 69.5zM336 1018v-1036q0 -82 -21 -146.5t-61.5 -109.5t-100.5 -69t-137 -24h-90v136h83q45 0 77.5 15.5t53.5 44t31 67.5t10 87v1035h155z" />
    <glyph glyph-name="k" unicode="k" horiz-adv-x="1105" 
d="M181 1408h154v-991l530 601h183l-379 -433l410 -585h-187l-334 482l-223 -245v-237h-154v1408z" />
    <glyph glyph-name="l" unicode="l" horiz-adv-x="517" 
d="M181 1408h154v-1408h-154v1408z" />
    <glyph glyph-name="n" unicode="n" horiz-adv-x="1306" 
d="M1167 0h-155v550q0 95 -21.5 163t-63.5 112t-102.5 64.5t-138.5 20.5q-73 0 -137 -26.5t-111.5 -75t-75 -116t-27.5 -149.5v-543h-154v1018h128l14 -150q30 37 71.5 69.5t90.5 56.5t105 38t115 14q232 0 347 -124t115 -370v-552z" />
    <glyph glyph-name="ntilde" unicode="&#xf1;" horiz-adv-x="1306" 
d="M1167 0h-155v550q0 95 -21.5 163t-63.5 112t-102.5 64.5t-138.5 20.5q-73 0 -137 -26.5t-111.5 -75t-75 -116t-27.5 -149.5v-543h-154v1018h128l14 -150q30 37 71.5 69.5t90.5 56.5t105 38t115 14q232 0 347 -124t115 -370v-552zM1052 1306q-45 -82 -99 -121.5
t-118 -39.5q-43 0 -81 11.5t-72.5 26t-65 26t-57.5 11.5q-26 0 -51.5 -13.5t-49.5 -53.5l-70 50q35 66 91 100t131 20q33 -6 62.5 -17t57.5 -22.5t54.5 -20t52.5 -8.5q37 0 72.5 22t70.5 79z" />
    <glyph glyph-name="o" unicode="o" horiz-adv-x="1325" 
d="M110 509q0 112 42 209.5t116 170.5t175 115t219 42t219.5 -42t176 -114.5t116.5 -170.5t42 -210q0 -113 -42 -210.5t-116.5 -170.5t-176 -114.5t-219.5 -41.5t-219 42t-175 114.5t-116 170.5t-42 210zM264 509q0 -87 31.5 -160.5t85.5 -127t127 -83.5t156 -30t155.5 30
t126.5 83.5t85.5 127t31.5 160.5q0 86 -31.5 159.5t-85.5 127t-126.5 84t-155.5 30.5t-156 -30.5t-127 -84t-85.5 -127t-31.5 -159.5z" />
    <glyph glyph-name="oacute" unicode="&#xf3;" horiz-adv-x="1325" 
d="M110 509q0 112 42 209.5t116 170.5t175 115t219 42t219.5 -42t176 -114.5t116.5 -170.5t42 -210q0 -113 -42 -210.5t-116.5 -170.5t-176 -114.5t-219.5 -41.5t-219 42t-175 114.5t-116 170.5t-42 210zM264 509q0 -87 31.5 -160.5t85.5 -127t127 -83.5t156 -30t155.5 30
t126.5 83.5t85.5 127t31.5 160.5q0 86 -31.5 159.5t-85.5 127t-126.5 84t-155.5 30.5t-156 -30.5t-127 -84t-85.5 -127t-31.5 -159.5zM881 1386l-175 -237h-115l172 279z" />
    <glyph glyph-name="ocircumflex" unicode="&#xf4;" horiz-adv-x="1325" 
d="M110 509q0 112 42 209.5t116 170.5t175 115t219 42t219.5 -42t176 -114.5t116.5 -170.5t42 -210q0 -113 -42 -210.5t-116.5 -170.5t-176 -114.5t-219.5 -41.5t-219 42t-175 114.5t-116 170.5t-42 210zM264 509q0 -87 31.5 -160.5t85.5 -127t127 -83.5t156 -30t155.5 30
t126.5 83.5t85.5 127t31.5 160.5q0 86 -31.5 159.5t-85.5 127t-126.5 84t-155.5 30.5t-156 -30.5t-127 -84t-85.5 -127t-31.5 -159.5zM933 1220l-55 -86l-244 167l-244 -167l-56 86l299 205z" />
    <glyph glyph-name="odieresis" unicode="&#xf6;" horiz-adv-x="1325" 
d="M110 509q0 112 42 209.5t116 170.5t175 115t219 42t219.5 -42t176 -114.5t116.5 -170.5t42 -210q0 -113 -42 -210.5t-116.5 -170.5t-176 -114.5t-219.5 -41.5t-219 42t-175 114.5t-116 170.5t-42 210zM264 509q0 -87 31.5 -160.5t85.5 -127t127 -83.5t156 -30t155.5 30
t126.5 83.5t85.5 127t31.5 160.5q0 86 -31.5 159.5t-85.5 127t-126.5 84t-155.5 30.5t-156 -30.5t-127 -84t-85.5 -127t-31.5 -159.5zM380 1268q0 34 25 57.5t63 23.5q40 0 64.5 -23.5t24.5 -57.5q0 -33 -24.5 -56t-64.5 -23q-39 0 -63.5 23t-24.5 56zM711 1268
q0 34 24.5 57.5t62.5 23.5q41 0 65 -23.5t24 -57.5q0 -33 -24.5 -56t-64.5 -23q-39 0 -63 23t-24 56z" />
    <glyph glyph-name="ograve" unicode="&#xf2;" horiz-adv-x="1325" 
d="M110 509q0 112 42 209.5t116 170.5t175 115t219 42t219.5 -42t176 -114.5t116.5 -170.5t42 -210q0 -113 -42 -210.5t-116.5 -170.5t-176 -114.5t-219.5 -41.5t-219 42t-175 114.5t-116 170.5t-42 210zM264 509q0 -87 31.5 -160.5t85.5 -127t127 -83.5t156 -30t155.5 30
t126.5 83.5t85.5 127t31.5 160.5q0 86 -31.5 159.5t-85.5 127t-126.5 84t-155.5 30.5t-156 -30.5t-127 -84t-85.5 -127t-31.5 -159.5zM522 1428l172 -279h-116l-174 237z" />
    <glyph glyph-name="oslash" unicode="&#xf8;" horiz-adv-x="1325" 
d="M110 509q0 112 42 209.5t116 170.5t175 115t219 42q81 0 153.5 -20t135.5 -56l64 81l111 -79l-67 -84q74 -73 115.5 -170t41.5 -209q0 -113 -42 -210.5t-116.5 -170.5t-176 -114.5t-219.5 -41.5q-78 0 -148 18.5t-131 51.5l-89 -111l-110 79l90 113q-77 73 -120.5 172
t-43.5 214zM264 509q0 -81 27 -149.5t75 -121.5l496 621q-45 24 -94.5 37.5t-103.5 13.5q-83 0 -156 -30.5t-127 -84t-85.5 -127t-31.5 -159.5zM1063 509q0 78 -25.5 144.5t-70.5 119.5l-494 -619q86 -46 191 -46q83 0 155.5 30t126.5 83.5t85.5 127t31.5 160.5z" />
    <glyph glyph-name="otilde" unicode="&#xf5;" horiz-adv-x="1325" 
d="M110 509q0 112 42 209.5t116 170.5t175 115t219 42t219.5 -42t176 -114.5t116.5 -170.5t42 -210q0 -113 -42 -210.5t-116.5 -170.5t-176 -114.5t-219.5 -41.5t-219 42t-175 114.5t-116 170.5t-42 210zM264 509q0 -87 31.5 -160.5t85.5 -127t127 -83.5t156 -30t155.5 30
t126.5 83.5t85.5 127t31.5 160.5q0 86 -31.5 159.5t-85.5 127t-126.5 84t-155.5 30.5t-156 -30.5t-127 -84t-85.5 -127t-31.5 -159.5zM978 1306q-45 -82 -99 -121.5t-118 -39.5q-43 0 -81 11.5t-72.5 26t-65 26t-57.5 11.5q-26 0 -51.5 -13.5t-49.5 -53.5l-70 50
q35 66 91 100t131 20q33 -6 62.5 -17t57.5 -22.5t54.5 -20t52.5 -8.5q37 0 72.5 22t70.5 79z" />
    <glyph glyph-name="oe" unicode="&#x153;" horiz-adv-x="2301" 
d="M112 509q0 112 42 209.5t116 170.5t175 115t219 42t219.5 -42t176 -114.5t116.5 -170.5t42 -210q0 -113 -42 -210.5t-116.5 -170.5t-176 -114.5t-219.5 -41.5t-219 42t-175 114.5t-116 170.5t-42 210zM266 509q0 -87 31.5 -160.5t85.5 -127t127 -83.5t156 -30t155.5 30
t126.5 83.5t85.5 127t31.5 160.5q0 86 -31.5 159.5t-85.5 127t-126.5 84t-155.5 30.5t-156 -30.5t-127 -84t-85.5 -127t-31.5 -159.5zM1061 509q0 112 42 209.5t116.5 170.5t175.5 115t219 42t219.5 -42t175.5 -114.5t116.5 -170.5t42.5 -210v-23h-1l-3 -25h-952
q9 -82 46 -148.5t92 -113t123.5 -72t141.5 -25.5q56 0 107 13.5t94.5 38.5t78.5 60.5t59 78.5h168q-29 -67 -77.5 -126t-114 -102.5t-145.5 -68.5t-171 -25q-118 0 -219 42t-175.5 115t-116.5 171t-42 210zM1615 919q-79 0 -147 -26t-120.5 -71.5t-87 -108.5t-45.5 -137h795
q-11 73 -45.5 136t-86 109t-119 72t-144.5 26z" />
    <glyph glyph-name="p" unicode="p" horiz-adv-x="1398" 
d="M1288 509q0 -112 -40.5 -210t-112.5 -170.5t-171 -114.5t-217 -42q-68 0 -128 14.5t-112.5 40t-95.5 61.5t-76 78v-514h-154v1366h128l15 -177q32 42 75.5 79.5t97 65.5t116 44t131.5 16q118 0 217.5 -41.5t172 -114.5t113.5 -171t41 -210zM1133 509q0 87 -31.5 160.5
t-86 127t-127.5 84t-157 30.5q-83 0 -156.5 -30.5t-128 -84t-86 -127t-31.5 -160.5q0 -86 31.5 -159.5t86.5 -127t128 -84t157 -30.5t157 30.5t127 84t85.5 127t31.5 159.5z" />
    <glyph glyph-name="q" unicode="q" horiz-adv-x="1407" 
d="M114 510q0 112 40.5 210t113 170.5t172 114.5t217.5 42q68 0 130 -17.5t115.5 -47t97 -69t75.5 -83.5l16 188h128v-1366h-153v515q-33 -42 -76.5 -78t-95.5 -62t-112.5 -40.5t-127.5 -14.5q-118 0 -217 42t-171 115t-112 171t-40 210zM267 509q0 -86 31.5 -159.5t86 -127
t127.5 -84t157 -30.5t157 30.5t128 84t86.5 127t31.5 159.5q0 87 -31.5 160.5t-86 127t-128 84t-157.5 30.5q-83 0 -156.5 -30.5t-128 -84t-86 -127t-31.5 -160.5z" />
    <glyph glyph-name="r" unicode="r" horiz-adv-x="853" 
d="M803 880h-109q-80 0 -146.5 -24t-114 -71t-74 -117t-26.5 -162v-506h-153v1018h128l16 -170q26 37 62.5 68t82 53.5t100.5 35.5t118 13h116v-138z" />
    <glyph glyph-name="s" unicode="s" horiz-adv-x="1024" 
d="M224 291q1 -38 22.5 -72t58 -60t85 -41.5t102.5 -15.5q155 0 231.5 49.5t76.5 131.5q0 45 -23.5 75t-65.5 50t-102 33t-134 24q-59 7 -124.5 20.5t-120 42.5t-90 79t-35.5 132q0 61 22.5 116.5t73 98t131.5 67.5t197 25q88 0 158.5 -22.5t120.5 -62t77 -93.5t27 -118
h-154q-2 37 -20 68t-49.5 53t-74.5 34t-95 12q-71 0 -121 -15t-81 -40t-45 -56.5t-14 -64.5q0 -39 19 -65.5t56.5 -45t93.5 -29.5t131 -18q44 -6 91 -14t91.5 -22t84.5 -34.5t69.5 -51t47 -72t17.5 -97.5q0 -78 -32 -137.5t-93 -100.5t-148.5 -62t-198.5 -21
q-97 0 -174 28.5t-130 74t-81.5 103t-28.5 115.5z" />
    <glyph glyph-name="scaron" unicode="&#x161;" horiz-adv-x="1024" 
d="M500 1138l-299 205l56 86l244 -167l244 167l55 -86zM224 291q1 -38 22.5 -72t58 -60t85 -41.5t102.5 -15.5q155 0 231.5 49.5t76.5 131.5q0 45 -23.5 75t-65.5 50t-102 33t-134 24q-59 7 -124.5 20.5t-120 42.5t-90 79t-35.5 132q0 61 22.5 116.5t73 98t131.5 67.5
t197 25q88 0 158.5 -22.5t120.5 -62t77 -93.5t27 -118h-154q-2 37 -20 68t-49.5 53t-74.5 34t-95 12q-71 0 -121 -15t-81 -40t-45 -56.5t-14 -64.5q0 -39 19 -65.5t56.5 -45t93.5 -29.5t131 -18q44 -6 91 -14t91.5 -22t84.5 -34.5t69.5 -51t47 -72t17.5 -97.5
q0 -78 -32 -137.5t-93 -100.5t-148.5 -62t-198.5 -21q-97 0 -174 28.5t-130 74t-81.5 103t-28.5 115.5z" />
    <glyph glyph-name="t" unicode="t" horiz-adv-x="890" 
d="M266 1317h117v-299h367v-136h-367v-498q0 -80 18.5 -132.5t49.5 -83.5t72 -43t85 -12h180l-1 -130h-192q-78 0 -144.5 19.5t-115.5 66t-77 123t-28 191.5v499h-182v124l178 25z" />
    <glyph glyph-name="u" unicode="u" horiz-adv-x="1266" 
d="M633 108q161 0 247 92t86 285v533h155v-538q0 -130 -34 -225.5t-97.5 -158.5t-154 -93.5t-202.5 -30.5t-202.5 30.5t-154 93.5t-97.5 158.5t-34 225.5v538h155v-533q0 -191 84.5 -284t248.5 -93z" />
    <glyph glyph-name="w" unicode="w" horiz-adv-x="1692" 
d="M1642 1018l-372 -1018h-145l-281 781l-279 -781h-144l-372 1018h165l291 -817h3l277 806h119l279 -806h3l290 817h166z" />
    <glyph glyph-name="x" unicode="x" horiz-adv-x="1076" 
d="M247 1018l291 -394l292 394h184l-372 -500l381 -518h-187l-299 406l-300 -406h-183l380 518l-373 500h186z" />
    <glyph glyph-name="y" unicode="y" horiz-adv-x="1134" 
d="M1079 1018l-600 -1367h-167l168 367l-438 1000h170l343 -790l5 -32l354 822h165z" />
    <glyph glyph-name="yacute" unicode="&#xfd;" horiz-adv-x="1134" 
d="M1079 1018l-600 -1367h-167l168 367l-438 1000h170l343 -790l5 -32l354 822h165zM775 1386l-175 -237h-115l172 279z" />
    <glyph glyph-name="ydieresis" unicode="&#xff;" horiz-adv-x="1134" 
d="M1079 1018l-600 -1367h-167l168 367l-438 1000h170l343 -790l5 -32l354 822h165zM284 1268q0 34 25 57.5t63 23.5q40 0 64.5 -23.5t24.5 -57.5q0 -33 -24.5 -56t-64.5 -23q-39 0 -63.5 23t-24.5 56zM615 1268q0 34 24.5 57.5t62.5 23.5q41 0 65 -23.5t24 -57.5
q0 -33 -24.5 -56t-64.5 -23q-39 0 -63 23t-24 56z" />
    <glyph glyph-name="z" unicode="z" horiz-adv-x="1023" 
d="M67 103l635 781h-604v134h821v-104l-634 -779h659v-135h-877v103z" />
    <glyph glyph-name="zcaron" unicode="&#x17e;" horiz-adv-x="1023" 
d="M518 1138l-299 205l56 86l244 -167l244 167l55 -86zM67 103l635 781h-604v134h821v-104l-634 -779h659v-135h-877v103z" />
    <glyph glyph-name="Eth" unicode="&#xd0;" horiz-adv-x="1624" 
d="M35 724h185v636h496q154 0 284.5 -45t225 -132t147.5 -213.5t53 -288.5q0 -152 -46.5 -277.5t-136.5 -215t-221.5 -139t-301.5 -49.5h-500v613h-185v111zM712 139q133 0 236.5 37.5t174.5 107.5t107.5 169.5t36.5 223.5q0 119 -34.5 219t-103.5 172.5t-173 113t-244 40.5
h-334v-498h200v-111h-200v-474h334z" />
    <glyph glyph-name="eth" unicode="&#xf0;" horiz-adv-x="1323" 
d="M978 1257q45 -52 87.5 -121t75.5 -158t53.5 -199.5t20.5 -244.5v-3q0 -121 -42 -223.5t-116.5 -177.5t-176 -117t-219.5 -42t-219 41t-175 113t-116 169t-42 209t38.5 209t108.5 169t168 113t216 41q59 0 116 -15t109 -44t97 -71t80 -96q-30 106 -79 204t-119 179
l-240 -116l-49 78l223 107q-79 73 -176 119l188 44q24 -17 55.5 -41t66.5 -57l214 103l47 -77zM263 503q0 -87 31.5 -159.5t85.5 -125t126.5 -81.5t155.5 -29t156 29t127 81.5t85.5 125t31.5 159.5q0 86 -31.5 159t-85.5 125.5t-127 82t-156 29.5t-155.5 -29.5t-126.5 -82
t-85.5 -125.5t-31.5 -159z" />
    <glyph glyph-name="Thorn" unicode="&#xde;" horiz-adv-x="1234" 
d="M339 236v-236h-158v1360h158v-245h383q97 0 179 -33t141.5 -91.5t92.5 -139t33 -176.5t-33 -176.5t-92 -139t-140 -91t-178 -32.5h-386zM718 373q63 0 116.5 23t92.5 63.5t61.5 95.5t22.5 119t-22.5 119.5t-62 96.5t-93.5 64.5t-117 23.5h-377v-605h379z" />
    <glyph glyph-name="germandbls" unicode="&#xdf;" horiz-adv-x="1340" 
d="M181 1070q0 69 15 135.5t52.5 118.5t100.5 84t159 32h140v-129h-108q-58 0 -97 -18.5t-63 -51.5t-34 -78t-10 -98v-47h846v-103l-332 -408q12 0 23 -1q9 -1 17 -1.5t12 -2.5q82 -5 153 -34t124 -81.5t83.5 -127.5t30.5 -172q0 -96 -36 -179.5t-99.5 -145t-151 -97
t-189.5 -35.5q-149 0 -263 71v134q57 -37 121 -54t124 -17q70 0 132.5 24t108.5 67t73 101.5t27 127.5q0 67 -24.5 122t-68 94t-104 60.5t-132.5 21.5l-156 1v91l328 410h-647v-884h-155v1070z" />
    <glyph glyph-name="Ntilde" unicode="&#xd1;" horiz-adv-x="1512" 
d="M1333 0h-133l-863 1082v-1082h-157v1360h130l866 -1085v1085h157v-1360zM1093 1689q-45 -82 -99 -121.5t-118 -39.5q-43 0 -81 11.5t-72.5 26t-65 26t-57.5 11.5q-26 0 -51.5 -13.5t-49.5 -53.5l-70 50q35 66 91 100t131 20q33 -6 62.5 -17t57.5 -22.5t54.5 -20
t52.5 -8.5q37 0 72.5 22t70.5 79z" />
    <glyph glyph-name="c" unicode="c" horiz-adv-x="1282" 
d="M262 509q0 -92 33 -166.5t88.5 -126.5t128 -80t150.5 -28q57 0 110 14.5t98.5 41.5t82 66t62.5 87h158q-26 -76 -75 -139.5t-115.5 -109t-148.5 -71t-173 -25.5q-118 0 -219 42t-175.5 114.5t-116.5 170.5t-42 210t42 209.5t116.5 170.5t175.5 115t219 42q91 0 172.5 -25
t147.5 -71t115.5 -109.5t77.5 -139.5h-159q-25 49 -62 87.5t-82.5 65.5t-98.5 41.5t-110 14.5q-78 0 -150.5 -28t-128 -80.5t-88.5 -126.5t-33 -166z" />
    <glyph glyph-name="Iacutesmall" unicode="&#xf7ed;" horiz-adv-x="530" 
d="M187 1018h155v-1018h-155v1018zM488 1386l-175 -237h-115l172 279z" />
    <glyph glyph-name="Ibreve.small" horiz-adv-x="530" 
d="M187 1018h155v-1018h-155v1018zM546 1384q-14 -106 -88.5 -168.5t-206.5 -62.5t-206.5 62.5t-88.5 168.5l111 10q10 -29 23 -53t34 -40.5t51.5 -25.5t75.5 -9t75.5 9t51.5 25.5t34 40.5t23 53z" />
    <glyph glyph-name="Lcommaaccent.small" horiz-adv-x="977" 
d="M181 1019h153v-885h521v-134h-674v1019zM608 -114l-164 -401l-111 6l134 412z" />
    <glyph glyph-name="Ldot.small" horiz-adv-x="977" 
d="M181 1019h153v-885h521v-134h-674v1019zM592 575q0 42 29 71.5t76 29.5q23 0 42 -8t33 -22t22 -32t8 -39q0 -42 -29.5 -71.5t-75.5 -29.5q-47 0 -76 29.5t-29 71.5z" />
    <glyph glyph-name="Lslashsmall" unicode="&#xf6f9;" horiz-adv-x="977" 
d="M44 520l137 58v441h153v-376l147 62l-1 -134l-146 -62v-375h521v-134h-674v444l-138 -58z" />
    <glyph glyph-name="Msmall" unicode="&#xf76d;" horiz-adv-x="1499" 
d="M709 337l-374 430v-767h-154v1019h132l430 -467l2 -3l435 470h131v-1019h-152v765l-378 -428h-72z" />
    <glyph glyph-name="Nsmall" unicode="&#xf76e;" horiz-adv-x="1307" 
d="M1119 0h-135l-649 758v-758h-154v1019h132l653 -759v759h153v-1019z" />
    <glyph glyph-name="Nacute.small" horiz-adv-x="1307" 
d="M1119 0h-135l-649 758v-758h-154v1019h132l653 -759v759h153v-1019zM859 1386l-175 -237h-115l172 279z" />
    <glyph glyph-name="uacute" unicode="&#xfa;" horiz-adv-x="1266" 
d="M629 108q161 0 247 92t86 285v533h155v-538q0 -130 -34 -225.5t-97.5 -158.5t-154 -93.5t-202.5 -30.5t-202.5 30.5t-154 93.5t-97.5 158.5t-34 225.5v538h155v-533q0 -191 84.5 -284t248.5 -93zM822 1386l-175 -237h-115l172 279z" />
    <glyph glyph-name="ucircumflex" unicode="&#xfb;" horiz-adv-x="1266" 
d="M629 108q161 0 247 92t86 285v533h155v-538q0 -130 -34 -225.5t-97.5 -158.5t-154 -93.5t-202.5 -30.5t-202.5 30.5t-154 93.5t-97.5 158.5t-34 225.5v538h155v-533q0 -191 84.5 -284t248.5 -93zM946 1220l-55 -86l-244 167l-244 -167l-56 86l299 205z" />
    <glyph glyph-name="udieresis" unicode="&#xfc;" horiz-adv-x="1266" 
d="M629 108q161 0 247 92t86 285v533h155v-538q0 -130 -34 -225.5t-97.5 -158.5t-154 -93.5t-202.5 -30.5t-202.5 30.5t-154 93.5t-97.5 158.5t-34 225.5v538h155v-533q0 -191 84.5 -284t248.5 -93zM393 1268q0 34 25 57.5t63 23.5q40 0 64.5 -23.5t24.5 -57.5
q0 -33 -24.5 -56t-64.5 -23q-39 0 -63.5 23t-24.5 56zM724 1268q0 34 24.5 57.5t62.5 23.5q41 0 65 -23.5t24 -57.5q0 -33 -24.5 -56t-64.5 -23q-39 0 -63 23t-24 56z" />
    <glyph glyph-name="ugrave" unicode="&#xf9;" horiz-adv-x="1266" 
d="M629 108q161 0 247 92t86 285v533h155v-538q0 -130 -34 -225.5t-97.5 -158.5t-154 -93.5t-202.5 -30.5t-202.5 30.5t-154 93.5t-97.5 158.5t-34 225.5v538h155v-533q0 -191 84.5 -284t248.5 -93zM589 1428l172 -279h-116l-174 237z" />
    <glyph glyph-name="parenright" unicode=")" horiz-adv-x="687" 
d="M215 1595q94 -91 158.5 -196.5t103.5 -221.5t56 -241.5t17 -255.5q0 -129 -17 -254.5t-56.5 -242.5t-104 -222.5t-159.5 -193.5h-159q84 76 148 177.5t106.5 220t64.5 250t22 266.5q0 134 -22 266.5t-65 252.5t-107 221.5t-147 173.5h161z" />
    <glyph glyph-name="ampersand" unicode="&#x26;" horiz-adv-x="1459" 
d="M1022 149q-97 -82 -212.5 -128.5t-234.5 -46.5q-98 0 -181.5 28.5t-145 79.5t-96.5 122t-35 156q0 79 30.5 140t79.5 110t109.5 87t120.5 70q-30 27 -61 62t-56 75.5t-41 85t-16 90.5q0 66 25.5 123t72 98.5t112.5 65t148 23.5q78 0 141.5 -21t108.5 -59.5t69.5 -93.5
t24.5 -123q0 -67 -25.5 -119.5t-67.5 -95t-97 -76.5t-114 -64l350 -388q51 66 83.5 142t43.5 160h142q-11 -114 -58 -216.5t-120 -187.5l224 -248h-187zM571 109q99 0 191.5 36.5t169.5 101.5l-386 424q-45 -24 -94 -52t-89 -64.5t-66 -83.5t-26 -108q0 -57 23 -104t63 -80
t95 -51.5t119 -18.5zM437 1067q0 -34 13 -66.5t33.5 -63t45.5 -58.5t49 -52q38 18 82.5 40.5t82.5 53t63.5 72t25.5 97.5q0 38 -13 69.5t-37.5 54.5t-59 35.5t-76.5 12.5q-51 0 -90.5 -15.5t-65.5 -42.5t-39.5 -62.5t-13.5 -74.5z" />
    <glyph glyph-name="percent" unicode="%" horiz-adv-x="1697" 
d="M1260 -15q-72 0 -133.5 24.5t-106.5 68t-71 102t-26 127.5t26 128.5t71 103t106.5 68.5t133.5 25t133.5 -24.5t107 -68t71.5 -103t26 -129.5q0 -69 -26 -127.5t-71 -102t-107 -68t-134 -24.5zM1261 98q45 0 82.5 16t65 43.5t43 65.5t15.5 83q0 46 -15.5 85t-43.5 67.5
t-65.5 45t-82.5 16.5q-44 0 -82 -16t-65.5 -44.5t-43 -67t-15.5 -84.5q0 -45 15.5 -83.5t43.5 -66.5t65.5 -44t82.5 -16zM385 -1l832 1360h145l-833 -1360h-144zM437 731q-72 0 -133.5 24.5t-106.5 68t-71 102t-26 127.5t25.5 128.5t71 103t107 68.5t133.5 25t134 -25
t107 -68.5t71 -103t26 -129.5q0 -68 -26 -127t-71 -102t-107 -67.5t-134 -24.5zM438 844q45 0 82.5 15.5t65 43.5t43 66t15.5 82q0 46 -15.5 85.5t-43.5 68t-65.5 44.5t-82.5 16t-82.5 -16t-65 -44t-43 -67t-15.5 -85q0 -45 15.5 -83.5t43 -66t65.5 -43.5t83 -16z" />
    </font>
</defs>
</svg>
